<?xml version="1.0" standalone="no"?>
<!DOCTYPE svg PUBLIC "-//W3C//DTD SVG 1.1//EN" "http://www.w3.org/Graphics/SVG/1.1/DTD/svg11.dtd" >
<svg xmlns="http://www.w3.org/2000/svg">
<metadata>Generated by IcoMoon</metadata>
<defs>
<font id="icomoon" horiz-adv-x="1024">
<font-face units-per-em="1024" ascent="960" descent="-64" />
<missing-glyph horiz-adv-x="1024" />
<glyph unicode="&#x20;" horiz-adv-x="512" d="" />
<glyph unicode="&#xe900;" glyph-name="add-chat11" d="M640 576h-85.333v85.333c0 11.316-4.497 22.168-12.497 30.17s-18.854 12.497-30.17 12.497c-11.315 0-22.17-4.495-30.17-12.497s-12.497-18.854-12.497-30.17v-85.333h-85.333c-11.316 0-22.168-4.495-30.17-12.497s-12.497-18.854-12.497-30.17c0-11.315 4.495-22.17 12.497-30.17s18.854-12.497 30.17-12.497h85.333v-85.333c0-11.315 4.497-22.17 12.497-30.17s18.854-12.497 30.17-12.497c11.315 0 22.17 4.497 30.17 12.497s12.497 18.854 12.497 30.17v85.333h85.333c11.315 0 22.17 4.497 30.17 12.497s12.497 18.854 12.497 30.17c0 11.316-4.497 22.168-12.497 30.17s-18.854 12.497-30.17 12.497zM810.667 874.667h-597.333c-33.948 0-66.505-13.486-90.51-37.49s-37.49-56.562-37.49-90.51v-426.667c0-33.946 13.486-66.505 37.49-90.509s56.562-37.491 90.51-37.491h494.507l157.867-158.293c3.985-3.955 8.717-7.083 13.914-9.207 5.197-2.121 10.765-3.2 16.38-3.166 5.598-0.145 11.149 1.024 16.213 3.413 7.791 3.2 14.46 8.636 19.17 15.62 4.706 6.989 7.241 15.211 7.283 23.633v682.667c0 33.948-13.487 66.505-37.491 90.51s-56.563 37.49-90.509 37.49zM853.333 166.827l-97.707 98.133c-3.985 3.955-8.717 7.083-13.914 9.207-5.197 2.121-10.765 3.2-16.38 3.166h-512c-11.316 0-22.168 4.497-30.17 12.497s-12.497 18.854-12.497 30.17v426.667c0 11.316 4.495 22.168 12.497 30.17s18.854 12.497 30.17 12.497h597.333c11.315 0 22.17-4.495 30.17-12.497s12.497-18.854 12.497-30.17v-579.84z" />
<glyph unicode="&#xe901;" glyph-name="add-chat21" d="M512.004 874.667c-56.030 0-111.512-11.036-163.278-32.478s-98.801-52.87-138.421-92.49c-80.015-80.016-124.968-188.54-124.968-301.699-0.373-98.522 33.74-194.069 96.427-270.080l-85.333-85.333c-5.92-5.999-9.931-13.619-11.526-21.897s-0.702-16.841 2.566-24.61c3.544-7.676 9.289-14.127 16.506-18.534s15.58-6.566 24.028-6.212h384c113.161 0 221.683 44.954 301.7 124.966 80.013 80.017 124.966 188.54 124.966 301.7s-44.954 221.683-124.966 301.699c-80.017 80.015-188.54 124.968-301.7 124.968v0zM512.004 106.667h-281.173l39.68 39.68c7.947 7.996 12.407 18.807 12.407 30.080s-4.46 22.084-12.407 30.080c-55.868 55.808-90.659 129.259-98.445 207.838-7.786 78.583 11.915 157.431 55.746 223.116s109.080 114.14 184.631 137.111c75.549 22.971 156.73 19.037 229.703-11.133 72.977-30.17 133.235-84.709 170.505-154.324 37.274-69.616 49.259-149.999 33.907-227.461-15.347-77.461-57.079-147.2-118.084-197.342-61.001-50.142-137.502-77.581-216.469-77.645v0zM640.004 490.667h-85.333v85.333c0 11.316-4.493 22.168-12.497 30.17-8 8.001-18.854 12.497-30.17 12.497s-22.17-4.495-30.17-12.497c-8-8.002-12.497-18.854-12.497-30.17v-85.333h-85.333c-11.316 0-22.168-4.497-30.17-12.497s-12.497-18.854-12.497-30.17c0-11.315 4.495-22.17 12.497-30.17s18.854-12.497 30.17-12.497h85.333v-85.333c0-11.315 4.497-22.17 12.497-30.17s18.854-12.497 30.17-12.497c11.315 0 22.17 4.497 30.17 12.497 8.004 8 12.497 18.854 12.497 30.17v85.333h85.333c11.315 0 22.17 4.497 30.17 12.497 8.004 8 12.497 18.854 12.497 30.17s-4.493 22.17-12.497 30.17c-8 8-18.854 12.497-30.17 12.497z" />
<glyph unicode="&#xe902;" glyph-name="add-mail1" d="M725.333 661.333h42.667v-42.667c0-11.316 4.497-22.168 12.497-30.17s18.854-12.497 30.17-12.497c11.315 0 22.17 4.495 30.17 12.497s12.497 18.854 12.497 30.17v42.667h42.667c11.315 0 22.17 4.495 30.17 12.497s12.497 18.854 12.497 30.17c0 11.316-4.497 22.168-12.497 30.17s-18.854 12.497-30.17 12.497h-42.667v42.667c0 11.316-4.497 22.168-12.497 30.17s-18.854 12.497-30.17 12.497c-11.315 0-22.17-4.495-30.17-12.497s-12.497-18.854-12.497-30.17v-42.667h-42.667c-11.315 0-22.17-4.495-30.17-12.497s-12.497-18.854-12.497-30.17c0-11.316 4.497-22.168 12.497-30.17s18.854-12.497 30.17-12.497zM896 490.667c-11.315 0-22.17-4.497-30.17-12.497s-12.497-18.854-12.497-30.17v-256c0-11.315-4.497-22.17-12.497-30.17s-18.854-12.497-30.17-12.497h-597.333c-11.316 0-22.168 4.497-30.17 12.497s-12.497 18.854-12.497 30.17v409.173l250.88-251.307c24-23.97 56.533-37.436 90.453-37.436s66.453 13.466 90.453 37.436l105.387 105.387c8.034 8.034 12.548 18.931 12.548 30.293s-4.514 22.259-12.548 30.293c-8.034 8.034-18.931 12.548-30.293 12.548s-22.259-4.514-30.293-12.548l-105.387-105.387c-7.974-7.817-18.697-12.198-29.867-12.198s-21.892 4.382-29.867 12.198l-251.307 250.88h323.84c11.315 0 22.17 4.495 30.17 12.497s12.497 18.854 12.497 30.17c0 11.316-4.497 22.168-12.497 30.17s-18.854 12.497-30.17 12.497h-341.333c-33.948 0-66.505-13.486-90.51-37.49s-37.49-56.562-37.49-90.51v-426.667c0-33.946 13.486-66.505 37.49-90.509s56.562-37.491 90.51-37.491h597.333c33.946 0 66.505 13.487 90.509 37.491s37.491 56.563 37.491 90.509v256c0 11.315-4.497 22.17-12.497 30.17s-18.854 12.497-30.17 12.497z" />
<glyph unicode="&#xe903;" glyph-name="adobe1" d="M386.987 222.72h118.613l74.667-146.773h108.373l-176.64 462.933-125.013-316.16zM85.333 832v-768l316.587 768h-316.587zM617.813 832l320.853-759.893v759.893h-320.853z" />
<glyph unicode="&#xe904;" glyph-name="adobe-11" d="M437.21 857.479c-3.9 5.823-9.169 10.595-15.352 13.895-6.181 3.3-13.080 5.024-20.087 5.022h-316.791c-5.603 0.001-11.152-1.101-16.329-3.245s-9.882-5.286-13.844-9.249c-3.962-3.962-7.105-8.666-9.249-13.844s-3.246-10.726-3.245-16.329v-771.5c0.001-9.882 3.433-19.456 9.709-27.093 6.276-7.633 15.008-12.851 24.704-14.767 9.696-1.911 19.755-0.401 28.461 4.279 8.706 4.676 15.517 12.233 19.273 21.372l316.792 771.5c2.658 6.481 3.678 13.516 2.974 20.484-0.708 6.969-3.115 13.657-7.014 19.474v0zM127.646 278.481v512.582h210.479l-210.479-512.582zM938.313 876.396h-320.751c-7.036-0.003-13.961-1.745-20.156-5.071-6.199-3.327-11.482-8.134-15.373-13.995s-6.272-12.592-6.933-19.596c-0.657-7.004 0.422-14.062 3.149-20.547l320.751-761.584c3.251-7.74 8.713-14.349 15.701-18.995s15.198-7.125 23.59-7.13c2.842 0.009 5.67 0.29 8.457 0.832 9.655 1.958 18.338 7.189 24.576 14.814s9.651 17.169 9.655 27.021v761.584c0 5.603-1.101 11.152-3.247 16.329-2.142 5.177-5.286 9.881-9.246 13.844-3.964 3.962-8.666 7.105-13.845 9.249-5.175 2.144-10.726 3.246-16.329 3.245v0zM895.646 283.396l-213.811 507.666h213.811v-507.666zM552.499 553.811c-3.038 8.042-8.435 14.979-15.484 19.901s-15.42 7.6-24.017 7.683h-0.414c-8.525 0.001-16.849-2.551-23.91-7.326-7.057-4.775-12.523-11.555-15.697-19.465l-130.519-325.581c-2.595-6.477-3.564-13.487-2.82-20.425 0.743-6.933 3.176-13.581 7.084-19.358s9.174-10.509 15.335-13.781c6.161-3.268 13.030-4.979 20.005-4.979h96.188l64.96-127.582c3.563-7.023 9.003-12.919 15.714-17.041 6.711-4.117 14.43-6.298 22.306-6.293h111.479c6.903 0 13.7 1.677 19.814 4.881 6.114 3.209 11.358 7.851 15.283 13.53s6.413 12.224 7.253 19.076c0.841 6.852 0.004 13.803-2.436 20.262l-180.126 476.499zM607.394 104.896l-64.956 127.582c-3.563 7.023-9.003 12.919-15.714 17.037s-14.434 6.298-22.306 6.298h-59.294l66.291 165.333 119.543-316.25h-23.565z" />
<glyph unicode="&#xe905;" glyph-name="aim1" d="M896 490.667h-45.653c-9.523 75.094-43.738 144.893-97.263 198.417s-123.324 87.74-198.417 97.263v45.653c0 11.316-4.497 22.168-12.497 30.17s-18.854 12.497-30.17 12.497c-11.315 0-22.17-4.495-30.17-12.497s-12.497-18.854-12.497-30.17v-45.653c-75.094-9.523-144.893-43.738-198.417-97.263s-87.74-123.323-97.263-198.417h-45.653c-11.316 0-22.168-4.497-30.17-12.497s-12.497-18.854-12.497-30.17c0-11.315 4.495-22.17 12.497-30.17s18.854-12.497 30.17-12.497h45.653c9.523-75.093 43.738-144.892 97.263-198.417s123.323-87.74 198.417-97.263v-45.653c0-11.315 4.497-22.17 12.497-30.17s18.854-12.497 30.17-12.497c11.315 0 22.17 4.497 30.17 12.497s12.497 18.854 12.497 30.17v45.653c75.093 9.523 144.892 43.738 198.417 97.263s87.74 123.324 97.263 198.417h45.653c11.315 0 22.17 4.497 30.17 12.497s12.497 18.854 12.497 30.17c0 11.315-4.497 22.17-12.497 30.17s-18.854 12.497-30.17 12.497zM725.333 405.333h38.827c-8.892-52.326-33.83-100.599-71.364-138.129-37.53-37.534-85.803-62.473-138.129-71.364v38.827c0 11.315-4.497 22.17-12.497 30.17s-18.854 12.497-30.17 12.497c-11.315 0-22.17-4.497-30.17-12.497s-12.497-18.854-12.497-30.17v-38.827c-52.328 8.892-100.599 33.83-138.131 71.364-37.532 37.53-62.47 85.803-71.363 138.129h38.827c11.316 0 22.168 4.497 30.17 12.497s12.497 18.854 12.497 30.17c0 11.315-4.495 22.17-12.497 30.17s-18.854 12.497-30.17 12.497h-38.827c8.893 52.328 33.83 100.599 71.363 138.131s85.803 62.47 138.131 71.363v-38.827c0-11.316 4.497-22.168 12.497-30.17s18.854-12.497 30.17-12.497c11.315 0 22.17 4.495 30.17 12.497s12.497 18.854 12.497 30.17v38.827c52.326-8.893 100.599-33.83 138.129-71.363 37.534-37.532 62.473-85.803 71.364-138.131h-38.827c-11.315 0-22.17-4.497-30.17-12.497s-12.497-18.854-12.497-30.17c0-11.315 4.497-22.17 12.497-30.17s18.854-12.497 30.17-12.497zM512 490.667c-8.439 0-16.687-2.5-23.706-7.189-7.014-4.689-12.484-11.354-15.714-19.149s-4.075-16.375-2.428-24.653c1.647-8.277 5.709-15.881 11.678-21.845 5.965-5.969 13.568-10.031 21.845-11.678s16.858-0.802 24.653 2.428c7.795 3.23 14.46 8.7 19.149 15.714 4.689 7.019 7.189 15.266 7.189 23.706 0 11.315-4.497 22.17-12.497 30.17s-18.854 12.497-30.17 12.497z" />
<glyph unicode="&#xe906;" glyph-name="alert-mail1" d="M896 384c-11.315 0-22.17-4.497-30.17-12.497s-12.497-18.854-12.497-30.17v-170.667c0-11.315-4.497-22.17-12.497-30.17s-18.854-12.497-30.17-12.497h-597.333c-11.316 0-22.168 4.497-30.17 12.497s-12.497 18.854-12.497 30.17v409.173l250.88-250.88c24-23.97 56.533-37.436 90.453-37.436s66.453 13.466 90.453 37.436l153.173 152.747c8.034 8.034 12.548 18.931 12.548 30.293s-4.514 22.259-12.548 30.293c-8.034 8.034-18.931 12.548-30.293 12.548s-22.259-4.514-30.293-12.548l-152.747-153.173c-3.968-3.998-8.687-7.172-13.884-9.34-5.201-2.167-10.778-3.281-16.41-3.281s-11.209 1.114-16.41 3.281c-5.197 2.167-9.916 5.342-13.884 9.34l-250.88 250.88h494.507c11.315 0 22.17 4.495 30.17 12.497s12.497 18.854 12.497 30.17c0 11.316-4.497 22.168-12.497 30.17s-18.854 12.497-30.17 12.497h-512c-33.948 0-66.505-13.486-90.51-37.49s-37.49-56.562-37.49-90.51v-426.667c0-33.946 13.486-66.505 37.49-90.509s56.562-37.491 90.51-37.491h597.333c33.946 0 66.505 13.487 90.509 37.491s37.491 56.563 37.491 90.509v170.667c0 11.315-4.497 22.17-12.497 30.17s-18.854 12.497-30.17 12.497zM896 853.333c-11.315 0-22.17-4.495-30.17-12.497s-12.497-18.854-12.497-30.17v-170.667c0-11.316 4.497-22.168 12.497-30.17s18.854-12.497 30.17-12.497c11.315 0 22.17 4.495 30.17 12.497s12.497 18.854 12.497 30.17v170.667c0 11.316-4.497 22.168-12.497 30.17s-18.854 12.497-30.17 12.497v0zM887.467 554.667c-2.671-0.467-5.261-1.33-7.68-2.56-2.718-0.934-5.303-2.225-7.68-3.84l-6.4-5.12c-7.795-8.176-12.215-18.995-12.373-30.293-0.209-2.697-0.209-5.41 0-8.107 0.397-2.825 1.259-5.568 2.56-8.107 0.934-2.718 2.227-5.303 3.84-7.68 1.574-2.236 3.285-4.373 5.12-6.4 3.968-3.998 8.687-7.172 13.884-9.34 5.201-2.167 10.778-3.281 16.41-3.281s11.209 1.114 16.41 3.281c5.197 2.167 9.916 5.342 13.884 9.34l5.12 6.4c1.613 2.377 2.906 4.962 3.84 7.68 1.297 2.539 2.163 5.282 2.56 8.107 0.209 2.697 0.209 5.41 0 8.107 0.128 6.4-1.182 12.745-3.84 18.569-2.654 5.824-6.588 10.975-11.503 15.073-4.919 4.097-10.692 7.036-16.9 8.599s-12.685 1.708-18.957 0.427l1.707-0.853z" />
<glyph unicode="&#xe907;" glyph-name="amazon1" d="M44.373 212.489c2.845 4.548 7.395 4.834 13.653 0.853 140.844-82.125 301.18-124.86 464.213-123.733 112.973 0.273 224.93 21.393 330.24 62.293 2.846 1.135 6.967 2.842 12.373 5.12 5.406 2.274 9.246 3.981 11.52 5.12 3.371 1.839 7.313 2.33 11.034 1.382 3.721-0.951 6.942-3.273 9.020-6.502 4.834-6.827 3.273-13.086-4.693-18.773-10.24-7.398-23.326-15.932-39.253-25.6-51.221-29.965-106.364-52.655-163.84-67.413-57.6-15.569-116.975-23.599-176.64-23.893-86.092-0.495-171.501 15.283-251.733 46.507-78.169 30.443-150.163 74.825-212.48 130.987-1.431 0.956-2.632 2.214-3.517 3.691s-1.433 3.127-1.603 4.843c0.043 1.839 0.637 3.622 1.707 5.12v0zM301.227 455.689c-1.023 35.763 9.117 70.955 29.013 100.692 19.815 28.257 47.374 50.185 79.36 63.147 36.369 14.518 74.556 23.993 113.493 28.16 15.36 1.707 40.393 3.982 75.093 6.827v14.507c2.155 25.074-1.95 50.291-11.947 73.387-6.455 8.682-15.010 15.584-24.858 20.061-9.852 4.477-20.676 6.383-31.462 5.539h-6.827c-17.579-1.263-34.445-7.476-48.64-17.92-13.794-10.459-23.219-25.661-26.453-42.667-0.337-4.678-2.185-9.12-5.261-12.659s-7.219-5.984-11.806-6.967l-98.133 11.947c-9.671 2.275-14.507 7.395-14.507 15.36 0.043 2.018 0.329 4.023 0.853 5.973 3.304 22.725 11.356 44.5 23.633 63.907s28.502 36.012 47.621 48.733c39.851 25.099 85.628 39.229 132.693 40.96h21.333c55.215 3.318 109.594-14.706 151.893-50.347 5.709-5.715 10.987-11.848 15.787-18.347 4.207-5.582 8.055-11.425 11.52-17.493 3.524-7.027 6.106-14.486 7.68-22.187 2.274-9.671 3.981-16.356 5.12-20.053 1.638-7.861 2.496-15.864 2.56-23.893 0.567-12.231 0.853-19.485 0.853-21.76v-206.505c-0.162-13.777 2.001-27.482 6.4-40.533 2.88-9.348 7.044-18.253 12.373-26.453 3.981-5.406 10.526-14.080 19.627-26.027 2.995-3.959 4.774-8.704 5.12-13.653-0.081-2.398-0.747-4.736-1.937-6.818s-2.867-3.844-4.89-5.129c-47.219-40.96-72.819-63.147-76.8-66.56-3.567-2.539-7.765-4.041-12.134-4.339-4.365-0.303-8.73 0.61-12.612 2.633-7.966 6.827-14.933 13.367-20.907 19.627-5.973 6.255-10.24 10.807-12.8 13.653-4.425 5.316-8.555 10.871-12.373 16.64-5.687 8.247-9.673 13.794-11.947 16.64-24.687-29.884-57.182-52.335-93.867-64.853-23.373-6.195-47.505-9.067-71.68-8.533-19.78-0.725-39.507 2.483-58.038 9.442s-35.494 17.523-49.909 31.091c-14.626 15.147-25.935 33.178-33.208 52.937s-10.348 40.819-9.032 61.837v0zM448 472.755c-0.969-19.191 4.932-38.097 16.64-53.333 5.414-6.575 12.275-11.802 20.049-15.283 7.77-3.477 16.243-5.111 24.751-4.77 2.436 0.081 4.864 0.367 7.253 0.853 2.108 0.439 4.25 0.725 6.4 0.853 12.011 3.251 23.181 9.050 32.751 16.998 9.57 7.953 17.318 17.869 22.716 29.082 6.362 11.068 11.102 22.993 14.080 35.413 2.714 10.189 4.429 20.621 5.12 31.147 0.286 7.962 0.427 21.047 0.427 39.252v21.333c-25.216 0.779-50.432-1.513-75.093-6.827-21.897-3.956-41.596-15.756-55.42-33.191-13.82-17.436-20.817-39.311-19.674-61.527v0zM806.4 197.982c1.331 2.534 3.059 4.838 5.12 6.827 12.437 8.823 26.287 15.462 40.96 19.627 20.621 5.538 41.809 8.691 63.147 9.387 5.414 0.58 10.889 0.294 16.213-0.853 25.6-2.278 40.96-6.545 46.080-12.8 2.586-4.689 3.772-10.018 3.413-15.36v-5.973c-0.96-24.273-6.46-48.154-16.213-70.4-9.493-25.139-25.028-47.561-45.227-65.28-2.108-1.967-4.809-3.166-7.68-3.413-1.19 0.013-2.359 0.303-3.413 0.853-3.413 1.707-4.267 4.834-2.56 9.387 16.196 32.418 26.867 67.315 31.573 103.253 0.397 4.8-0.802 9.6-3.413 13.653-5.687 6.827-21.619 10.24-47.787 10.24-9.673 0-21.047-0.572-34.133-1.707-14.221-1.707-27.307-3.413-39.253-5.12-2.406-0.29-4.838 0.32-6.827 1.707-0.512 0.384-0.879 0.93-1.033 1.553-0.158 0.623-0.094 1.28 0.179 1.86 0.102 0.9 0.393 1.775 0.853 2.56z" />
<glyph unicode="&#xe908;" glyph-name="android1" d="M127.646 575.984c-5.603 0.002-11.152-1.101-16.33-3.245s-9.881-5.286-13.844-9.248c-3.962-3.962-7.105-8.666-9.248-13.844s-3.247-10.726-3.245-16.331v-170.667c0-11.315 4.495-22.165 12.497-30.17 8.002-8 18.854-12.497 30.17-12.497s22.168 4.497 30.17 12.497c8.001 8.004 12.497 18.854 12.497 30.17v170.667c0.001 5.605-1.101 11.153-3.245 16.331s-5.286 9.881-9.248 13.844c-3.962 3.962-8.666 7.105-13.844 9.248s-10.726 3.247-16.329 3.245v0zM895.646 575.984c-5.602 0.002-11.153-1.101-16.329-3.245-5.18-2.144-9.882-5.286-13.845-9.248s-7.104-8.666-9.25-13.844c-2.142-5.177-3.243-10.726-3.243-16.331v-170.667c0-11.315 4.497-22.165 12.497-30.17 8-8 18.854-12.497 30.17-12.497s22.17 4.497 30.17 12.497c8 8.004 12.497 18.854 12.497 30.17v170.667c0 5.605-1.101 11.153-3.243 16.331-2.146 5.177-5.286 9.881-9.25 13.844s-8.666 7.105-13.845 9.248c-5.175 2.144-10.726 3.247-16.329 3.245zM719.249 810.65c2.82 4.852 4.659 10.212 5.406 15.775 0.742 5.562 0.384 11.217-1.058 16.641s-3.942 10.509-7.356 14.964c-3.413 4.456-7.671 8.194-12.531 11.001s-10.227 4.627-15.791 5.356c-5.564 0.729-11.217 0.353-16.64-1.107-5.419-1.46-10.496-3.975-14.942-7.401s-8.171-7.695-10.961-12.564l-26.206-45.328c-33.643 15.802-70.353 23.995-107.524 23.995s-73.882-8.192-107.526-23.995l-26.203 45.328c-2.793 4.869-6.518 9.138-10.964 12.564s-9.523 5.94-14.942 7.401c-5.419 1.46-11.073 1.836-16.638 1.107s-10.931-2.55-15.791-5.356c-4.86-2.807-9.118-6.545-12.531-11.001s-5.912-9.541-7.356-14.964c-1.443-5.423-1.803-11.078-1.057-16.641s2.582-10.924 5.404-15.775l29.547-51.112c-24.652-23.793-44.259-52.309-57.65-83.846s-20.293-65.447-20.292-99.709v-341.334c-0.001-5.602 1.101-11.153 3.245-16.329s5.286-9.882 9.249-13.845c3.962-3.959 8.666-7.104 13.844-9.246 5.177-2.146 10.726-3.247 16.329-3.247h85.333v-128c0-11.315 4.495-22.165 12.497-30.17 8.002-8 18.854-12.497 30.17-12.497s22.17 4.497 30.17 12.497c8 8.004 12.497 18.854 12.497 30.17v128h85.333v-128c0-11.315 4.497-22.165 12.497-30.17 8-8 18.854-12.497 30.17-12.497s22.17 4.497 30.17 12.497c8 8.004 12.497 18.854 12.497 30.17v128h85.333c5.602 0 11.153 1.101 16.329 3.247 5.18 2.142 9.882 5.286 13.845 9.246 3.959 3.964 7.104 8.67 9.246 13.845 2.146 5.175 3.247 10.726 3.247 16.329v341.334c0 34.262-6.899 68.173-20.292 99.709s-32.998 60.052-57.651 83.846l29.547 51.112zM682.313 277.316h-341.333v213.333h341.333v-213.333zM340.979 575.984c0 45.264 17.981 88.673 49.987 120.68s75.415 49.987 120.68 49.987c45.265 0 88.674-17.981 120.678-49.987 32.009-32.006 49.988-75.416 49.988-120.68h-341.333z" />
<glyph unicode="&#xe909;" glyph-name="android-11" d="M638.95 831.198l40.951 73.881c0.525 0.948 0.858 1.99 0.981 3.066s0.034 2.167-0.265 3.209c-0.299 1.042-0.802 2.015-1.476 2.863s-1.51 1.555-2.458 2.080c-1.911 1.061-4.169 1.319-6.276 0.716-2.103-0.603-3.878-2.018-4.941-3.932l-41.408-74.7c-35.328 15.488-73.485 23.484-112.055 23.484-38.575 0-76.732-7.996-112.061-23.484l-41.407 74.7c-1.061 1.914-2.839 3.328-4.943 3.932s-4.361 0.346-6.276-0.716c-1.914-1.061-3.328-2.839-3.931-4.943s-0.346-4.361 0.715-6.275l40.954-73.882c-38.983-19.216-71.921-48.797-95.202-85.498s-36.003-79.105-36.773-122.56h517.847c-0.772 43.455-13.495 85.859-36.774 122.56s-56.218 66.282-95.202 85.498v0zM392.497 717.893c-4.277 0-8.457 1.268-12.013 3.644s-6.327 5.753-7.964 9.705c-1.637 3.951-2.065 8.299-1.231 12.493s2.894 8.047 5.918 11.072c3.024 3.024 6.877 5.084 11.072 5.918s8.542 0.406 12.493-1.231c3.951-1.637 7.328-4.408 9.705-7.964s3.644-7.737 3.644-12.013c-0.006-5.733-2.287-11.229-6.34-15.283s-9.55-6.334-15.283-6.34v0zM631.505 717.893c-4.275 0-8.457 1.268-12.011 3.644-3.558 2.376-6.327 5.753-7.966 9.705s-2.065 8.299-1.229 12.493c0.832 4.195 2.893 8.047 5.918 11.072 3.021 3.024 6.874 5.084 11.072 5.918 4.194 0.835 8.542 0.406 12.493-1.231s7.326-4.408 9.702-7.964c2.377-3.556 3.644-7.737 3.644-12.013-0.004-5.733-2.287-11.229-6.34-15.283s-9.549-6.334-15.283-6.34v0zM253.076 227.354c0-16.602 6.595-32.525 18.334-44.262s27.661-18.334 44.263-18.334h41.54v-128.043c-0.021-7.633 1.466-15.198 4.373-22.259s7.18-13.478 12.572-18.884c5.392-5.41 11.798-9.698 18.851-12.625s14.614-4.433 22.25-4.433c7.636 0 15.195 1.506 22.248 4.433s13.461 7.215 18.85 12.625c5.393 5.406 9.668 11.823 12.574 18.884 2.91 7.061 4.395 14.626 4.373 22.259v128.043h77.393v-128.043c-0.021-7.633 1.463-15.198 4.373-22.259 2.906-7.061 7.181-13.478 12.57-18.884 5.393-5.41 11.797-9.698 18.85-12.625s14.618-4.433 22.251-4.433c7.637 0 15.198 1.506 22.251 4.433s13.457 7.215 18.85 12.625c5.393 5.406 9.664 11.823 12.574 18.884 2.906 7.061 4.395 14.626 4.373 22.259v128.043h41.54c16.602 0 32.525 6.596 44.262 18.334 11.742 11.738 18.334 27.661 18.334 44.262v375.302h-517.851v-375.302zM173.405 612.615c-15.389-0.017-30.144-6.139-41.025-17.021s-17.003-25.636-17.021-41.026v-241.856c-0.020-7.633 1.466-15.198 4.373-22.259s7.18-13.478 12.572-18.884c5.392-5.41 11.798-9.698 18.851-12.625s14.614-4.433 22.25-4.433c7.636 0 15.197 1.506 22.249 4.433s13.459 7.215 18.851 12.625c5.392 5.406 9.664 11.823 12.572 18.884s4.394 14.626 4.373 22.259v241.856c-0.017 15.389-6.138 30.144-17.021 41.026s-25.636 17.003-41.026 17.021v0zM850.598 612.615c-15.39-0.017-30.144-6.138-41.028-17.021-10.88-10.882-17.003-25.636-17.020-41.026v-241.856c-0.021-7.633 1.468-15.198 4.373-22.259 2.91-7.061 7.181-13.478 12.574-18.884 5.393-5.41 11.797-9.698 18.85-12.625s14.613-4.433 22.251-4.433c7.637 0 15.198 1.506 22.251 4.433s13.457 7.215 18.85 12.625c5.393 5.406 9.664 11.823 12.57 18.884 2.91 7.061 4.395 14.626 4.373 22.259v241.856c-0.017 15.389-6.135 30.144-17.020 41.026-10.88 10.882-25.634 17.003-41.024 17.021v0z" />
<glyph unicode="&#xe90a;" glyph-name="apple1" d="M637.44 738.56c16.132 18.591 28.429 40.185 36.19 63.542s10.833 48.017 9.037 72.565c-49.519-3.997-95.488-27.288-128-64.853-15.569-18.004-27.366-38.95-34.697-61.595-7.326-22.646-10.035-46.532-7.97-70.245 24.158-0.201 48.034 5.158 69.786 15.665s40.798 25.877 55.654 44.922v0zM744.96 421.12c0.286 32.695 8.9 64.777 25.024 93.218s39.232 52.307 67.136 69.342c-17.609 25.376-40.892 46.301-67.998 61.113s-57.293 23.105-88.162 24.221c-66.56 6.827-128-38.827-163.413-38.827s-85.333 37.973-140.799 37.12c-36.261-1.195-71.594-11.767-102.551-30.685s-56.484-45.538-74.089-77.261c-75.093-130.56-19.2-324.693 55.893-430.080 34.133-51.627 76.8-110.080 133.12-107.947s74.665 34.987 139.945 34.987 85.333-34.987 140.8-33.707c55.467 1.28 94.72 52.907 130.56 104.533 25.391 37.483 45.222 78.438 58.88 121.6-33.813 14.421-62.66 38.43-82.982 69.065s-31.223 66.547-31.364 103.309v0z" />
<glyph unicode="&#xe90b;" glyph-name="apple-11" d="M874.859 288.273c-26.103 11.162-48.341 29.773-63.932 53.5-15.595 23.727-23.846 51.524-23.735 79.919 0.337 25.34 7.125 50.18 19.725 72.175 12.595 21.995 30.588 40.417 52.275 53.531 4.907 3.033 9.148 7.029 12.467 11.747s5.649 10.060 6.844 15.703c1.195 5.644 1.233 11.471 0.115 17.129-1.122 5.659-3.379 11.031-6.635 15.793-19.499 28.354-44.915 52.138-74.5 69.712-29.581 17.574-62.626 28.519-96.853 32.079 31.855 50.554 46.31 110.136 41.165 169.667-1.003 10.81-6.157 20.811-14.374 27.904s-18.867 10.726-29.709 10.138c-73.259-6.529-141.171-41.083-189.581-96.458-30.686-35.558-52.343-77.994-63.125-123.708-22.28 7.54-45.606 11.533-69.125 11.833-43.542-1.234-86.027-13.697-123.334-36.182s-68.173-54.227-89.603-92.151c-80.542-139.834-31.271-349.374 55.978-475.501 35-50.539 87.521-126.417 166.75-126.417 1.562 0 3.145 0 4.729 0.085 26.546 1.506 52.536 8.235 76.48 19.793 19.123 9.694 40.226 14.857 61.666 15.083 20.164-0.243 39.991-5.18 57.916-14.417 26.193-12.39 54.737-19.025 83.708-19.456 81.626 1.54 129.835 71.957 165.043 123.418 27.78 40.87 49.519 85.542 64.542 132.625 3.2 10.27 2.419 21.372-2.197 31.091-4.612 9.719-12.715 17.348-22.699 21.363v0zM572.732 765.104c22.413 25.067 50.492 44.41 81.899 56.416-6.874-33.802-22.076-65.353-44.228-91.791-15.040-18.042-33.335-33.097-53.939-44.377l-0.124-0.043c-1.207-0.5-2.419-0.958-3.627-1.458-7.957-3.125-17.792-7-25.374-9.5 7.322 33.565 22.929 64.763 45.393 90.752v0zM764.796 151.356c-34.291-50.086-61.269-85.628-96.188-86.251-16.879 0.051-33.476 4.335-48.269 12.459-28.604 13.935-59.977 21.257-91.793 21.419-32.922-0.166-65.399-7.637-95.083-21.875-14.433-7.369-30.179-11.814-46.334-13.082h-1.271c-34.688 0-72 53.871-96.771 89.664-61.98 89.583-119.146 268.083-52.188 384.334 14.041 25.156 34.346 46.255 58.946 61.25s52.657 23.376 81.45 24.331l1.437 0.043c24.29-2.064 48.010-8.486 70.022-18.959 5.602-2.208 11.123-4.416 16.602-6.458 1.399-0.584 2.833-1.125 4.292-1.583 15.185-6.107 31.313-9.533 47.667-10.125 23.159 1.841 45.777 7.928 66.731 17.958 29.538 14.335 62.003 21.596 94.835 21.208 35.115-1.374 68.826-14.159 96.021-36.417-23.245-21.413-41.749-47.451-54.327-76.439-12.578-28.992-18.953-60.292-18.718-91.895v-0.043c-0.239-38.255 9.229-75.947 27.52-109.547s44.804-62.012 77.065-82.577c-11.234-27.145-25.186-53.082-41.647-77.414v0z" />
<glyph unicode="&#xe90c;" glyph-name="approve-chat1" d="M670.293 691.627l-226.133-226.133-90.453 90.453c-3.825 4.466-8.532 8.094-13.825 10.655s-11.059 4-16.935 4.227c-5.876 0.227-11.735-0.763-17.21-2.908s-10.448-5.399-14.606-9.557c-4.158-4.158-7.412-9.131-9.557-14.606s-3.135-11.333-2.908-17.213c0.227-5.875 1.666-11.639 4.227-16.934 2.561-5.291 6.189-10.001 10.655-13.824l120.747-120.747c7.947-7.881 18.675-12.326 29.867-12.373 5.615-0.034 11.183 1.045 16.38 3.166 5.197 2.125 9.929 5.252 13.914 9.207l256 256c3.998 3.966 7.172 8.685 9.34 13.885s3.281 10.776 3.281 16.409c0 5.632-1.114 11.209-3.281 16.409s-5.342 9.918-9.34 13.885c-7.996 7.947-18.807 12.407-30.080 12.407s-22.084-4.46-30.080-12.407v0zM810.667 874.667h-597.333c-33.948 0-66.505-13.486-90.51-37.49s-37.49-56.562-37.49-90.51v-426.667c0-33.946 13.486-66.505 37.49-90.509s56.562-37.491 90.51-37.491h494.507l157.867-158.293c3.985-3.955 8.717-7.083 13.914-9.207 5.197-2.121 10.765-3.2 16.38-3.166 5.598-0.145 11.149 1.024 16.213 3.413 7.791 3.2 14.46 8.636 19.17 15.62 4.706 6.989 7.241 15.211 7.283 23.633v682.667c0 33.948-13.487 66.505-37.491 90.51s-56.563 37.49-90.509 37.49zM853.333 166.827l-97.707 98.133c-3.985 3.955-8.717 7.083-13.914 9.207-5.197 2.121-10.765 3.2-16.38 3.166h-512c-11.316 0-22.168 4.497-30.17 12.497s-12.497 18.854-12.497 30.17v426.667c0 11.316 4.495 22.168 12.497 30.17s18.854 12.497 30.17 12.497h597.333c11.315 0 22.17-4.495 30.17-12.497s12.497-18.854 12.497-30.17v-579.84z" />
<glyph unicode="&#xe90d;" glyph-name="approve-chat21" d="M652.378 582.4l-201.813-202.24-78.933 79.36c-8.034 8.034-18.931 12.548-30.293 12.548s-22.259-4.514-30.293-12.548c-8.034-8.034-12.548-18.931-12.548-30.293 0-5.628 1.108-11.196 3.261-16.393 2.153-5.201 5.309-9.924 9.287-13.901l109.227-109.227c3.966-3.998 8.687-7.172 13.883-9.34 5.201-2.167 10.778-3.281 16.41-3.281s11.209 1.114 16.41 3.281c5.197 2.167 9.916 5.342 13.884 9.34l232.107 232.107c3.977 3.977 7.134 8.7 9.289 13.899 2.15 5.198 3.26 10.769 3.26 16.395s-1.109 11.197-3.26 16.395c-2.155 5.198-5.312 9.92-9.289 13.899s-8.7 7.134-13.897 9.287c-5.201 2.153-10.769 3.261-16.397 3.261-5.623 0-11.196-1.108-16.393-3.261-5.201-2.153-9.924-5.309-13.901-9.287v0zM512.004 874.667c-56.030 0-111.512-11.036-163.278-32.478s-98.801-52.87-138.421-92.49c-80.015-80.016-124.968-188.54-124.968-301.699-0.373-98.522 33.74-194.069 96.427-270.080l-85.333-85.333c-5.92-5.999-9.931-13.619-11.526-21.897s-0.702-16.841 2.566-24.61c3.544-7.676 9.289-14.127 16.506-18.534s15.58-6.566 24.028-6.212h384c113.161 0 221.683 44.954 301.7 124.966 80.013 80.017 124.966 188.54 124.966 301.7s-44.954 221.683-124.966 301.699c-80.017 80.015-188.54 124.968-301.7 124.968v0zM512.004 106.667h-281.173l39.68 39.68c7.947 7.996 12.407 18.807 12.407 30.080s-4.46 22.084-12.407 30.080c-55.868 55.808-90.659 129.259-98.445 207.838-7.786 78.583 11.915 157.431 55.746 223.116s109.080 114.14 184.631 137.111c75.549 22.971 156.73 19.037 229.703-11.133 72.977-30.17 133.235-84.709 170.505-154.324 37.274-69.616 49.259-149.999 33.907-227.461-15.347-77.461-57.079-147.2-118.084-197.342-61.001-50.142-137.502-77.581-216.469-77.645v0z" />
<glyph unicode="&#xe90e;" glyph-name="approve-chat31" d="M567.040 655.786c-3.998-3.966-7.172-8.685-9.34-13.885s-3.281-10.776-3.281-16.409c0-5.632 1.114-11.209 3.281-16.408s5.342-9.918 9.34-13.885l81.92-81.919c3.968-3.998 8.687-7.172 13.884-9.34 5.201-2.167 10.778-3.281 16.41-3.281s11.209 1.114 16.41 3.281c5.197 2.167 9.916 5.342 13.884 9.34l174.080 174.079c4.668 3.791 8.478 8.526 11.187 13.893 2.705 5.367 4.25 11.246 4.527 17.251s-0.717 12.001-2.918 17.595c-2.202 5.594-5.559 10.66-9.856 14.865s-9.434 7.455-15.074 9.536c-5.636 2.082-11.652 2.948-17.651 2.543s-11.844-2.074-17.152-4.896c-5.308-2.822-9.958-6.734-13.649-11.479l-143.787-142.933-51.627 52.053c-3.968 3.999-8.687 7.174-13.884 9.34-5.201 2.166-10.778 3.281-16.41 3.281s-11.209-1.115-16.41-3.281c-5.197-2.166-9.916-5.341-13.884-9.34v0zM849.493 506.027c-11.251-0.977-21.658-6.379-28.937-15.014-7.279-8.64-10.837-19.81-9.89-31.066 0.213-3.981 0.213-7.966 0-11.947 0-79.211-31.467-155.179-87.475-211.191-56.013-56.009-131.981-87.475-211.191-87.475h-238.507l27.307 26.88c7.947 7.991 12.407 18.807 12.407 30.080s-4.461 22.084-12.407 30.080c-38.159 37.952-65.353 85.508-78.709 137.643-13.356 52.139-12.375 106.914 2.836 158.537s44.090 98.179 83.582 134.741 88.13 61.775 140.771 72.972c39.433 7.885 80.034 7.885 119.467 0 5.602-1.12 11.371-1.126 16.977-0.017s10.94 3.311 15.693 6.481c4.753 3.169 8.836 7.244 12.015 11.992 3.183 4.748 5.393 10.075 6.515 15.678s1.126 11.372 0.017 16.977c-1.109 5.606-3.311 10.938-6.481 15.692s-7.245 8.838-11.989 12.017c-4.749 3.18-10.078 5.393-15.68 6.513-50.833 10.229-103.194 10.229-154.027 0-86.136-18.801-163.244-66.514-218.508-135.206s-85.358-154.229-85.278-242.393c0.358-87.305 30.457-171.883 85.333-239.787l-72.96-71.253c-5.92-5.999-9.931-13.619-11.525-21.897s-0.702-16.841 2.565-24.61c3.201-7.791 8.637-14.464 15.622-19.17s15.208-7.241 23.631-7.283h341.333c101.845 0 199.514 40.457 271.531 112.469 72.013 72.017 112.469 169.685 112.469 271.531 0 6.4 0 12.373 0 18.773-0.427 5.649-1.98 11.153-4.557 16.201-2.581 5.043-6.14 9.523-10.466 13.175-4.331 3.652-9.344 6.409-14.75 8.102-5.406 1.698-11.093 2.3-16.734 1.775z" />
<glyph unicode="&#xe90f;" glyph-name="approve-chat41" d="M288.851 569.592l232.105 232.107c3.981 3.978 7.134 8.701 9.289 13.899s3.26 10.769 3.26 16.394c0 5.626-1.105 11.197-3.26 16.395s-5.308 9.921-9.289 13.899c-3.977 3.978-8.7 7.134-13.897 9.287s-10.769 3.261-16.397 3.261c-11.362 0-22.259-4.514-30.293-12.548l-201.812-200.96-78.933 78.080c-8.034 8.035-18.931 12.548-30.293 12.548s-22.259-4.514-30.293-12.548c-8.034-8.034-12.548-18.931-12.548-30.293s4.514-22.259 12.548-30.293l109.227-109.227c3.966-3.999 8.686-7.173 13.885-9.339s10.776-3.281 16.409-3.281c5.632 0 11.209 1.115 16.409 3.281s9.918 5.341 13.885 9.339zM789.329 703.992h-234.667c-11.315 0-22.165-4.495-30.17-12.497-8-8.002-12.497-18.854-12.497-30.17s4.497-22.168 12.497-30.17c8.004-8.002 18.854-12.497 30.17-12.497h234.667c11.319 0 22.17-4.495 30.17-12.497 8.004-8.002 12.497-18.854 12.497-30.17v-414.72l-66.987 61.867c-7.868 7.369-18.231 11.482-29.013 11.52h-373.332c-11.316 0-22.168 4.497-30.17 12.497s-12.497 18.854-12.497 30.17v149.333c0 11.315-4.495 22.17-12.497 30.17-8.002 8.004-18.854 12.497-30.17 12.497s-22.168-4.493-30.17-12.497c-8.001-8-12.497-18.854-12.497-30.17v-149.333c0-33.946 13.486-66.505 37.49-90.509s56.562-37.491 90.51-37.491h356.692l128-116.48c7.872-7.364 18.236-11.482 29.013-11.52 5.854 0.064 11.644 1.22 17.067 3.413 7.633 3.332 14.123 8.823 18.675 15.799 4.548 6.972 6.955 15.125 6.925 23.454v512c0.004 16.954-3.362 33.739-9.903 49.381-6.537 15.642-16.119 29.829-28.186 41.737-12.070 11.909-26.381 21.301-42.108 27.633s-32.555 9.475-49.51 9.249v0z" />
<glyph unicode="&#xe910;" glyph-name="approved-cloud1" d="M609.702 354.556l-140.373-140.373-55.038 55.040c-3.966 3.998-8.685 7.172-13.885 9.34-5.199 2.163-10.776 3.281-16.409 3.281s-11.209-1.118-16.408-3.281c-5.199-2.167-9.919-5.342-13.885-9.34-7.947-7.996-12.407-18.812-12.407-30.080 0-11.273 4.46-22.089 12.407-30.080l85.332-85.333c3.968-4.002 8.687-7.177 13.888-9.34 5.197-2.167 10.773-3.281 16.405-3.281 5.636 0 11.213 1.114 16.41 3.281 5.201 2.163 9.92 5.338 13.884 9.34l170.667 170.667c7.949 7.991 12.407 18.807 12.407 30.080 0 11.268-4.459 22.084-12.407 30.080-3.964 3.998-8.683 7.172-13.884 9.34-5.197 2.163-10.773 3.281-16.41 3.281-5.632 0-11.209-1.118-16.405-3.281-5.201-2.167-9.92-5.342-13.888-9.34v0zM785.916 605.007c-26.095 59.912-71.125 109.611-128.179 141.476s-122.987 44.138-187.686 34.937c-64.698-9.201-124.593-39.369-170.502-85.877s-75.296-106.79-83.657-171.601c-35.584-8.832-67.38-28.885-90.678-57.195-23.298-28.305-36.861-63.364-38.68-99.985-1.819-36.617 8.203-72.849 28.581-103.326s50.030-53.585 84.564-65.894c5.45-2.863 11.454-4.51 17.6-4.83s12.289 0.691 18.007 2.97c5.718 2.274 10.876 5.764 15.12 10.219 4.244 4.459 7.473 9.783 9.466 15.603 1.993 5.824 2.703 12.011 2.080 18.133s-2.562 12.041-5.686 17.344c-3.124 5.299-7.358 9.865-12.413 13.376s-10.808 5.892-16.867 6.972c-16.63 6.012-30.982 17.041-41.071 31.561-10.089 14.524-15.418 31.821-15.249 49.506 0 22.63 8.991 44.335 24.994 60.339 16.003 16 37.708 24.994 60.34 24.994 11.316 0 22.168 4.493 30.17 12.497 8.001 8 12.497 18.85 12.497 30.17 0.209 50.425 18.274 99.147 50.99 137.521s77.969 63.918 127.727 72.1c49.758 8.182 100.809-1.526 144.090-27.403s75.994-66.249 92.339-113.953c2.505-7.252 6.916-13.696 12.774-18.651s12.941-8.24 20.506-9.507c28.42-5.372 54.182-20.207 73.092-42.095 18.906-21.884 29.845-49.527 31.031-78.426 1.19-28.898-7.445-57.344-24.495-80.708-17.045-23.36-41.506-40.26-69.389-47.945-11.315-1.417-21.606-7.266-28.608-16.269-6.997-9.003-10.138-20.416-8.725-31.731 1.417-11.319 7.266-21.606 16.269-28.608s20.416-10.142 31.731-8.725h10.667c44.902 11.861 84.706 38.059 113.365 74.603 28.663 36.544 44.612 81.446 45.436 127.881 0.819 46.434-13.534 91.87-40.887 129.404-27.349 37.536-66.206 65.12-110.66 78.565v2.56z" />
<glyph unicode="&#xe911;" glyph-name="approved-mail1" d="M695.040 588.365c3.968-3.999 8.687-7.173 13.884-9.339 5.201-2.166 10.778-3.281 16.41-3.281s11.209 1.115 16.41 3.281c5.197 2.166 9.916 5.341 13.884 9.339l170.667 170.667c8.034 8.035 12.548 18.931 12.548 30.293s-4.514 22.259-12.548 30.293c-8.034 8.035-18.931 12.548-30.293 12.548s-22.259-4.514-30.293-12.548l-140.373-140.8-55.040 55.467c-3.977 3.978-8.7 7.134-13.901 9.287-5.197 2.153-10.765 3.261-16.393 3.261-11.362 0-22.259-4.514-30.293-12.548-3.977-3.978-7.134-8.701-9.289-13.899-2.15-5.198-3.26-10.769-3.26-16.395 0-11.362 4.514-22.259 12.548-30.293l85.333-85.333zM896 618.659c-11.315 0-22.17-4.495-30.17-12.497s-12.497-18.854-12.497-30.17v-384c0-11.315-4.497-22.17-12.497-30.17s-18.854-12.497-30.17-12.497h-597.333c-11.316 0-22.168 4.497-30.17 12.497s-12.497 18.854-12.497 30.17v409.174l250.88-251.307c23.945-23.748 56.299-37.090 90.027-37.12 34.577 0.179 67.686 13.973 92.16 38.4l73.387 73.387c8.034 8.034 12.548 18.931 12.548 30.293s-4.514 22.259-12.548 30.293c-8.034 8.034-18.931 12.548-30.293 12.548s-22.259-4.514-30.293-12.548l-74.667-74.667c-7.974-7.817-18.697-12.194-29.867-12.194s-21.892 4.378-29.867 12.194l-251.307 250.88h238.507c11.315 0 22.17 4.495 30.17 12.497s12.497 18.854 12.497 30.17c0 11.316-4.497 22.168-12.497 30.17s-18.854 12.497-30.17 12.497h-256c-33.948 0-66.505-13.486-90.51-37.49s-37.49-56.562-37.49-90.51v-426.667c0-33.946 13.486-66.505 37.49-90.509s56.562-37.491 90.51-37.491h597.333c33.946 0 66.505 13.487 90.509 37.491s37.491 56.563 37.491 90.509v384c0 11.316-4.497 22.168-12.497 30.17s-18.854 12.497-30.17 12.497z" />
<glyph unicode="&#xe912;" glyph-name="bank1" d="M896 533.333c5.602 0 11.153 1.101 16.329 3.245 5.18 2.144 9.882 5.286 13.845 9.249 3.959 3.962 7.104 8.666 9.246 13.844 2.146 5.177 3.247 10.726 3.247 16.329v128c0.004 8.953-2.812 17.679-8.047 24.941s-12.625 12.691-21.12 15.517l-384 128c-8.764 2.917-18.236 2.917-26.999 0l-384-128c-8.495-2.826-15.884-8.255-21.119-15.517s-8.051-15.988-8.047-24.941v-128c-0.001-5.603 1.101-11.152 3.245-16.329s5.286-9.882 9.249-13.844c3.962-3.962 8.666-7.105 13.844-9.249s10.726-3.245 16.329-3.245h42.667v-306.53c-24.886-8.764-46.448-25.020-61.727-46.528-15.279-21.513-23.525-47.223-23.606-73.609v-85.333c-0.001-5.602 1.101-11.153 3.245-16.329 2.144-5.18 5.286-9.882 9.249-13.845 3.962-3.959 8.666-7.104 13.844-9.246 5.177-2.146 10.726-3.247 16.329-3.247h768c5.602 0 11.153 1.101 16.329 3.247 5.18 2.142 9.882 5.286 13.845 9.246 3.959 3.964 7.104 8.666 9.246 13.845 2.146 5.175 3.247 10.726 3.247 16.329v85.333c-0.081 26.385-8.329 52.096-23.607 73.609-15.279 21.508-36.838 37.764-61.726 46.528v306.53h42.667zM853.333 64h-682.667v42.667c0.011 11.311 4.51 22.157 12.509 30.157s18.845 12.497 30.157 12.51h597.333c11.311-0.013 22.157-4.51 30.157-12.51s12.497-18.846 12.51-30.157v-42.667zM256 234.667v298.667h85.333v-298.667h-85.333zM426.667 234.667v298.667h170.667v-298.667h-170.667zM682.667 234.667v298.667h85.333v-298.667h-85.333zM170.667 618.667v54.583l341.333 113.792 341.333-113.792v-54.583h-682.667z" />
<glyph unicode="&#xe913;" glyph-name="bar-graph1" d="M597.333 576h-170.667c-11.316 0-22.168-4.495-30.17-12.497s-12.497-18.854-12.497-30.17v-512c0-11.315 4.495-22.17 12.497-30.17s18.854-12.497 30.17-12.497h170.667c11.315 0 22.17 4.497 30.17 12.497s12.497 18.854 12.497 30.17v512c0 11.316-4.497 22.168-12.497 30.17s-18.854 12.497-30.17 12.497zM554.667 64h-85.333v426.667h85.333v-426.667zM938.667 917.333h-170.667c-11.315 0-22.17-4.495-30.17-12.497s-12.497-18.854-12.497-30.17v-853.333c0-11.315 4.497-22.17 12.497-30.17s18.854-12.497 30.17-12.497h170.667c11.315 0 22.17 4.497 30.17 12.497s12.497 18.854 12.497 30.17v853.333c0 11.316-4.497 22.168-12.497 30.17s-18.854 12.497-30.17 12.497zM896 64h-85.333v768h85.333v-768zM256 320h-170.667c-11.316 0-22.168-4.497-30.17-12.497s-12.497-18.854-12.497-30.17v-256c0-11.315 4.495-22.17 12.497-30.17s18.854-12.497 30.17-12.497h170.667c11.316 0 22.168 4.497 30.17 12.497s12.497 18.854 12.497 30.17v256c0 11.315-4.495 22.17-12.497 30.17s-18.854 12.497-30.17 12.497zM213.333 64h-85.333v170.667h85.333v-170.667z" />
<glyph unicode="&#xe914;" glyph-name="bar-graph-11" d="M213.333 448c-11.316 0-22.168-4.497-30.17-12.497s-12.497-18.854-12.497-30.17v-341.333c0-11.315 4.495-22.17 12.497-30.17s18.854-12.497 30.17-12.497c11.316 0 22.168 4.497 30.17 12.497s12.497 18.854 12.497 30.17v341.333c0 11.315-4.495 22.17-12.497 30.17s-18.854 12.497-30.17 12.497zM426.667 874.667c-11.316 0-22.168-4.495-30.17-12.497s-12.497-18.854-12.497-30.17v-768c0-11.315 4.495-22.17 12.497-30.17s18.854-12.497 30.17-12.497c11.315 0 22.17 4.497 30.17 12.497s12.497 18.854 12.497 30.17v768c0 11.316-4.497 22.168-12.497 30.17s-18.854 12.497-30.17 12.497v0zM853.333 277.333c-11.315 0-22.17-4.497-30.17-12.497s-12.497-18.854-12.497-30.17v-170.667c0-11.315 4.497-22.17 12.497-30.17s18.854-12.497 30.17-12.497c11.315 0 22.17 4.497 30.17 12.497s12.497 18.854 12.497 30.17v170.667c0 11.315-4.497 22.17-12.497 30.17s-18.854 12.497-30.17 12.497zM640 618.667c-11.315 0-22.17-4.495-30.17-12.497s-12.497-18.854-12.497-30.17v-512c0-11.315 4.497-22.17 12.497-30.17s18.854-12.497 30.17-12.497c11.315 0 22.17 4.497 30.17 12.497s12.497 18.854 12.497 30.17v512c0 11.316-4.497 22.168-12.497 30.17s-18.854 12.497-30.17 12.497z" />
<glyph unicode="&#xe915;" glyph-name="bar-graph-21" d="M256 405.333h-170.667c-11.316 0-22.168-4.497-30.17-12.497s-12.497-18.854-12.497-30.17v-341.333c0-11.315 4.495-22.17 12.497-30.17s18.854-12.497 30.17-12.497h170.667c11.316 0 22.168 4.497 30.17 12.497s12.497 18.854 12.497 30.17v341.333c0 11.315-4.495 22.17-12.497 30.17s-18.854 12.497-30.17 12.497zM213.333 64h-85.333v256h85.333v-256zM938.667 576h-170.667c-11.315 0-22.17-4.495-30.17-12.497s-12.497-18.854-12.497-30.17v-512c0-11.315 4.497-22.17 12.497-30.17s18.854-12.497 30.17-12.497h170.667c11.315 0 22.17 4.497 30.17 12.497s12.497 18.854 12.497 30.17v512c0 11.316-4.497 22.168-12.497 30.17s-18.854 12.497-30.17 12.497zM896 64h-85.333v426.667h85.333v-426.667zM597.333 917.333h-170.667c-11.316 0-22.168-4.495-30.17-12.497s-12.497-18.854-12.497-30.17v-853.333c0-11.315 4.495-22.17 12.497-30.17s18.854-12.497 30.17-12.497h170.667c11.315 0 22.17 4.497 30.17 12.497s12.497 18.854 12.497 30.17v853.333c0 11.316-4.497 22.168-12.497 30.17s-18.854 12.497-30.17 12.497zM554.667 64h-85.333v768h85.333v-768z" />
<glyph unicode="&#xe916;" glyph-name="bar-graph-31" d="M896 106.667h-42.667v640c0 11.316-4.497 22.168-12.497 30.17s-18.854 12.497-30.17 12.497c-11.315 0-22.17-4.495-30.17-12.497s-12.497-18.854-12.497-30.17v-640h-85.333v298.667c0 11.315-4.497 22.17-12.497 30.17s-18.854 12.497-30.17 12.497c-11.315 0-22.17-4.497-30.17-12.497s-12.497-18.854-12.497-30.17v-298.667h-85.333v469.333c0 11.316-4.497 22.168-12.497 30.17s-18.854 12.497-30.17 12.497c-11.315 0-22.17-4.495-30.17-12.497s-12.497-18.854-12.497-30.17v-469.333h-85.333v128c0 11.315-4.495 22.17-12.497 30.17s-18.854 12.497-30.17 12.497c-11.316 0-22.168-4.497-30.17-12.497s-12.497-18.854-12.497-30.17v-128h-85.333v725.333c0 11.316-4.495 22.168-12.497 30.17s-18.854 12.497-30.17 12.497c-11.316 0-22.168-4.495-30.17-12.497s-12.497-18.854-12.497-30.17v-768c0-11.315 4.495-22.17 12.497-30.17s18.854-12.497 30.17-12.497h768c11.315 0 22.17 4.497 30.17 12.497s12.497 18.854 12.497 30.17c0 11.315-4.497 22.17-12.497 30.17s-18.854 12.497-30.17 12.497z" />
<glyph unicode="&#xe917;" glyph-name="bar-graph-41" d="M896 106.667h-725.333v85.333h128c11.316 0 22.168 4.497 30.17 12.497s12.497 18.854 12.497 30.17c0 11.315-4.495 22.17-12.497 30.17s-18.854 12.497-30.17 12.497h-128v85.333h298.667c11.315 0 22.17 4.497 30.17 12.497s12.497 18.854 12.497 30.17c0 11.315-4.497 22.17-12.497 30.17s-18.854 12.497-30.17 12.497h-298.667v85.333h469.333c11.315 0 22.17 4.495 30.17 12.497s12.497 18.854 12.497 30.17c0 11.316-4.497 22.168-12.497 30.17s-18.854 12.497-30.17 12.497h-469.333v85.333h640c11.315 0 22.17 4.495 30.17 12.497s12.497 18.854 12.497 30.17c0 11.316-4.497 22.168-12.497 30.17s-18.854 12.497-30.17 12.497h-640v42.667c0 11.316-4.495 22.168-12.497 30.17s-18.854 12.497-30.17 12.497c-11.316 0-22.168-4.495-30.17-12.497s-12.497-18.854-12.497-30.17v-768c0-11.315 4.495-22.17 12.497-30.17s18.854-12.497 30.17-12.497h768c11.315 0 22.17 4.497 30.17 12.497s12.497 18.854 12.497 30.17c0 11.315-4.497 22.17-12.497 30.17s-18.854 12.497-30.17 12.497z" />
<glyph unicode="&#xe918;" glyph-name="bar-graph-51" d="M896 106.667h-42.667v640c0 11.316-4.497 22.168-12.497 30.17s-18.854 12.497-30.17 12.497c-11.315 0-22.17-4.495-30.17-12.497s-12.497-18.854-12.497-30.17v-640h-85.333v469.333c0 11.316-4.497 22.168-12.497 30.17s-18.854 12.497-30.17 12.497c-11.315 0-22.17-4.495-30.17-12.497s-12.497-18.854-12.497-30.17v-469.333h-85.333v298.667c0 11.315-4.497 22.17-12.497 30.17s-18.854 12.497-30.17 12.497c-11.315 0-22.17-4.497-30.17-12.497s-12.497-18.854-12.497-30.17v-298.667h-85.333v128c0 11.315-4.495 22.17-12.497 30.17s-18.854 12.497-30.17 12.497c-11.316 0-22.168-4.497-30.17-12.497s-12.497-18.854-12.497-30.17v-128h-85.333v725.333c0 11.316-4.495 22.168-12.497 30.17s-18.854 12.497-30.17 12.497c-11.316 0-22.168-4.495-30.17-12.497s-12.497-18.854-12.497-30.17v-768c0-11.315 4.495-22.17 12.497-30.17s18.854-12.497 30.17-12.497h768c11.315 0 22.17 4.497 30.17 12.497s12.497 18.854 12.497 30.17c0 11.315-4.497 22.17-12.497 30.17s-18.854 12.497-30.17 12.497z" />
<glyph unicode="&#xe919;" glyph-name="behance1" d="M856.32 689.065h-216.32v-60.16h217.173l-0.853 60.16zM810.667 275.2c-16.41-10.876-35.789-16.393-55.467-15.787-13.026-1.361-26.189-0.013-38.669 3.951-12.484 3.964-24.013 10.462-33.865 19.089-18.219 20.655-27.703 47.578-26.453 75.093h282.453c2.035 28.646-0.41 57.438-7.253 85.333-6.618 26.534-18.202 51.58-34.133 73.813-16.038 21.562-36.753 39.213-60.587 51.625-26.522 13.076-55.77 19.657-85.333 19.2-27.806 0.204-55.369-5.164-81.067-15.787-23.531-9.92-44.851-24.424-62.72-42.665-17.818-18.611-31.616-40.687-40.533-64.853-9.57-26.095-14.34-53.705-14.080-81.493-0.439-28.186 4.186-56.222 13.653-82.773 8.043-24.047 20.809-46.242 37.547-65.28 17.318-18.697 38.605-33.276 62.293-42.667 26.415-10.065 54.511-14.989 82.773-14.507 39.654-1.237 78.805 9.143 112.64 29.867 34.172 24.282 58.773 59.75 69.547 100.267h-94.293c-5.047-13.406-14.336-24.789-26.453-32.427zM664.32 450.987c3.319 10.637 8.832 20.459 16.183 28.838 7.347 8.375 16.367 15.121 26.483 19.802 13.397 6.029 27.981 8.947 42.667 8.533 10.607 0.905 21.286-0.495 31.3-4.105 10.018-3.61 19.136-9.34 26.726-16.802 14.498-17.749 23.799-39.159 26.88-61.867h-177.067c0.691 8.67 2.261 17.246 4.693 25.6h2.133zM438.613 471.467c21.717 9.041 40.585 23.782 54.613 42.667 12.894 20.052 19.302 43.59 18.347 67.412 0.836 21.724-3.401 43.345-12.373 63.147-7.539 17.156-19.639 31.914-34.987 42.667-16.269 11.18-34.748 18.745-54.187 22.187-23.005 4.825-46.47 7.114-69.973 6.827h-254.72v-536.745h260.267c23.752-0.017 47.409 2.991 70.4 8.96 21.79 5.636 42.436 15.019 61.013 27.733 17.993 12.467 32.649 29.171 42.667 48.64 11.089 21.769 16.521 45.978 15.787 70.4 0.806 30.259-7.68 60.041-24.32 85.333-17.894 25.429-44.437 43.477-74.667 50.773h2.133zM203.52 624.638h110.507c10.153 0.013 20.287-0.844 30.293-2.56 9.214-1.365 18.063-4.556 26.027-9.387 7.695-4.352 13.93-10.884 17.92-18.773 4.942-9.46 7.297-20.057 6.827-30.72 0.795-9.183-0.609-18.424-4.096-26.957-3.488-8.532-8.957-16.113-15.957-22.108-15.27-10.5-33.541-15.74-52.053-14.933h-119.467v125.438zM410.027 307.2c-4.384-8.695-11.013-16.064-19.2-21.333-8.521-5.299-17.908-9.058-27.733-11.093-10.92-2.445-22.091-3.593-33.28-3.413h-128v147.2h128c21.966 0.96 43.657-5.171 61.867-17.493 8.227-7.386 14.599-16.602 18.602-26.906 4.003-10.3 5.523-21.402 4.438-32.401 1.154-11.729-0.454-23.565-4.693-34.56v0z" />
<glyph unicode="&#xe91a;" glyph-name="behance-11" d="M943.292 318.643c-5.431 1.399-11.085 1.707-16.636 0.913s-10.893-2.679-15.71-5.542c-4.821-2.867-9.028-6.656-12.382-11.153-3.349-4.497-5.781-9.613-7.147-15.049-7.812-30.14-26.347-56.393-52.126-73.847-25.783-17.451-57.045-24.9-87.927-20.958-30.882 3.947-59.268 19.021-79.834 42.394s-31.902 53.444-31.885 84.578v42.667h298.667c5.602 0 11.153 1.101 16.329 3.243 5.18 2.146 9.882 5.286 13.845 9.25 3.959 3.964 7.104 8.666 9.246 13.845 2.146 5.175 3.247 10.726 3.247 16.329 0 28.015-5.517 55.757-16.239 81.638s-26.436 49.401-46.246 69.21c-19.81 19.81-43.328 35.524-69.21 46.245s-53.623 16.239-81.638 16.239c-28.015 0-55.757-5.518-81.638-16.239s-49.399-26.435-69.21-46.245c-19.81-19.81-35.524-43.329-46.246-69.21s-16.239-53.623-16.239-81.638v-85.333c-0.017-51.934 18.914-102.089 53.248-141.052 34.33-38.967 81.698-64.068 133.222-70.592 51.52-6.528 103.65 5.973 146.611 35.149 42.961 29.18 73.801 73.033 86.733 123.328 1.378 5.427 1.677 11.076 0.875 16.619s-2.688 10.876-5.551 15.689c-2.863 4.813-6.647 9.015-11.136 12.365-4.489 3.354-9.591 5.786-15.023 7.159v0zM767.646 533.312c33.852-0.013 66.33-13.385 90.377-37.21 13.35-13.653 23.531-30.084 29.807-48.124h-240.32c8.764 24.883 25.020 46.447 46.528 61.726 21.513 15.279 47.223 23.526 73.609 23.607v0zM682.313 661.312h170.667c11.315 0 22.17 4.495 30.17 12.497s12.497 18.854 12.497 30.17c0 11.316-4.497 22.168-12.497 30.17s-18.854 12.497-30.17 12.497h-170.667c-11.315 0-22.17-4.495-30.17-12.497s-12.497-18.854-12.497-30.17c0-11.316 4.497-22.168 12.497-30.17s18.854-12.497 30.17-12.497v0zM422.814 460.045c22.771 24.222 37.943 54.583 43.648 87.334 5.7 32.751 1.681 66.455-11.563 96.946-13.248 30.491-35.138 56.432-62.967 74.617s-60.377 27.816-93.62 27.703h-213.333c-5.603 0.001-11.152-1.101-16.33-3.245s-9.881-5.286-13.844-9.249c-3.962-3.962-7.105-8.666-9.248-13.844s-3.246-10.726-3.245-16.329v-554.666c-0.001-5.602 1.101-11.153 3.245-16.329 2.144-5.18 5.286-9.882 9.249-13.845s8.666-7.104 13.844-9.25c5.177-2.142 10.726-3.243 16.329-3.243h234.667c41.521-0.077 81.943 13.333 115.183 38.212 33.242 24.879 57.506 59.878 69.141 99.738 11.635 39.855 10.014 82.415-4.621 121.267-14.639 38.857-41.498 71.91-76.535 94.182v0zM127.646 661.312h170.667c22.632 0 44.337-8.99 60.34-24.994s24.994-37.708 24.994-60.34c0-22.632-8.99-44.339-24.994-60.339-16.003-16.004-37.708-24.994-60.34-24.994h-170.667v170.666zM319.646 191.979h-192v213.333h192c28.29 0 55.421-11.238 75.425-31.241 20.004-20.006 31.242-47.138 31.242-75.426 0-28.292-11.238-55.42-31.242-75.426-20.004-20.002-47.135-31.241-75.425-31.241z" />
<glyph unicode="&#xe91b;" glyph-name="bill1" d="M554.667 277.329h-256c-11.316 0-22.168-4.493-30.17-12.497-8.001-8-12.497-18.854-12.497-30.17s4.495-22.165 12.497-30.17c8.002-8 18.854-12.497 30.17-12.497h256c11.315 0 22.17 4.497 30.17 12.497 8.004 8.004 12.497 18.854 12.497 30.17s-4.493 22.17-12.497 30.17c-8 8.004-18.854 12.497-30.17 12.497zM384 533.329h85.333c11.315 0 22.17 4.497 30.17 12.498 8.004 8.001 12.497 18.854 12.497 30.17s-4.493 22.168-12.497 30.17c-8 8.001-18.854 12.497-30.17 12.497h-85.333c-11.316 0-22.168-4.495-30.17-12.497s-12.497-18.854-12.497-30.17c0-11.316 4.495-22.168 12.497-30.17s18.854-12.498 30.17-12.498v0zM896 447.996h-128v384.001c0.030 7.518-1.929 14.911-5.675 21.43s-9.148 11.931-15.659 15.69c-6.485 3.745-13.845 5.716-21.333 5.716s-14.848-1.972-21.333-5.716l-128-73.387-128 73.387c-6.485 3.745-13.845 5.716-21.333 5.716-7.489 0-14.847-1.972-21.333-5.716l-128-73.387-128 73.387c-6.486 3.745-13.844 5.716-21.333 5.716s-14.847-1.972-21.333-5.716c-6.511-3.759-11.913-9.172-15.66-15.69s-5.704-13.911-5.674-21.43v-682.668c0-33.946 13.486-66.505 37.49-90.509s56.562-37.491 90.51-37.491h597.333c33.95 0 66.505 13.487 90.509 37.491s37.491 56.563 37.491 90.509v256c0 11.315-4.493 22.17-12.497 30.17-8 8.004-18.854 12.497-30.17 12.497zM213.334 106.662c-11.316 0-22.168 4.497-30.17 12.497-8.002 8.004-12.497 18.854-12.497 30.17v608.855l85.333-48.64c6.585-3.439 13.904-5.236 21.333-5.236s14.748 1.796 21.333 5.236l128 73.387 128-73.387c6.583-3.439 13.905-5.236 21.333-5.236s14.75 1.796 21.333 5.236l85.333 48.64v-608.855c0.115-14.554 2.714-28.983 7.68-42.667h-477.013zM853.333 149.329c0-11.315-4.493-22.165-12.497-30.17-8-8-18.854-12.497-30.17-12.497s-22.17 4.497-30.17 12.497c-8 8.004-12.497 18.854-12.497 30.17v213.333h85.333v-213.333zM554.667 447.996h-256c-11.316 0-22.168-4.493-30.17-12.497-8.001-8-12.497-18.854-12.497-30.17s4.495-22.165 12.497-30.17c8.002-8 18.854-12.497 30.17-12.497h256c11.315 0 22.17 4.497 30.17 12.497 8.004 8.004 12.497 18.854 12.497 30.17s-4.493 22.17-12.497 30.17c-8 8.004-18.854 12.497-30.17 12.497z" />
<glyph unicode="&#xe91c;" glyph-name="bill-11" d="M426.667 618.667h256c11.315 0 22.17 4.495 30.17 12.497s12.497 18.854 12.497 30.17c0 11.316-4.497 22.168-12.497 30.17s-18.854 12.497-30.17 12.497h-256c-11.316 0-22.168-4.495-30.17-12.497s-12.497-18.854-12.497-30.17c0-11.316 4.495-22.168 12.497-30.17s18.854-12.497 30.17-12.497v0zM341.333 448h341.333c11.315 0 22.17 4.497 30.17 12.497s12.497 18.854 12.497 30.17c0 11.315-4.497 22.17-12.497 30.17s-18.854 12.497-30.17 12.497h-341.333c-11.316 0-22.168-4.497-30.17-12.497s-12.497-18.854-12.497-30.17c0-11.315 4.495-22.17 12.497-30.17s18.854-12.497 30.17-12.497zM341.333 277.333h341.333c11.315 0 22.17 4.497 30.17 12.497s12.497 18.854 12.497 30.17c0 11.315-4.497 22.17-12.497 30.17s-18.854 12.497-30.17 12.497h-341.333c-11.316 0-22.168-4.497-30.17-12.497s-12.497-18.854-12.497-30.17c0-11.315 4.495-22.17 12.497-30.17s18.854-12.497 30.17-12.497zM853.333 874.667h-682.667c-11.316 0-22.168-4.495-30.17-12.497s-12.497-18.854-12.497-30.17v-768c0-7.923 2.206-15.693 6.372-22.43 4.166-6.741 10.126-12.19 17.213-15.731 7.087-3.546 15.021-5.043 22.913-4.335 7.892 0.713 15.429 3.61 21.768 8.363l88.32 66.133 87.893-66.133c7.386-5.538 16.368-8.533 25.6-8.533s18.214 2.995 25.6 8.533l88.32 66.133 88.32-66.133c7.386-5.538 16.367-8.533 25.6-8.533s18.214 2.995 25.6 8.533l87.893 66.133 88.32-66.133c6.37-4.749 13.939-7.62 21.854-8.299s15.863 0.866 22.946 4.459c7.036 3.546 12.954 8.969 17.097 15.671s6.345 14.421 6.37 22.302v768c0 11.316-4.497 22.168-12.497 30.17s-18.854 12.497-30.17 12.497v0zM810.667 149.333l-45.653 34.133c-7.386 5.538-16.367 8.533-25.6 8.533s-18.214-2.995-25.6-8.533l-87.893-66.133-88.32 66.133c-7.386 5.538-16.367 8.533-25.6 8.533s-18.214-2.995-25.6-8.533l-88.32-66.133-87.893 66.133c-7.386 5.538-16.368 8.533-25.6 8.533s-18.214-2.995-25.6-8.533l-45.653-34.133v640h597.333v-640z" />
<glyph unicode="&#xe91d;" glyph-name="bitcoin1" d="M695.65 480.38c17.37 25.655 27.426 55.562 29.082 86.503 1.66 30.941-5.141 61.749-19.669 89.116-14.532 27.367-36.241 50.26-62.801 66.219s-56.964 24.383-87.949 24.366v42.667c0 11.316-4.497 22.168-12.497 30.17s-18.854 12.497-30.17 12.497c-11.315 0-22.17-4.495-30.17-12.497s-12.497-18.854-12.497-30.17v-42.667h-85.333v42.667c0 11.316-4.495 22.168-12.497 30.17s-18.854 12.497-30.17 12.497c-11.316 0-22.168-4.495-30.17-12.497s-12.497-18.854-12.497-30.17v-42.667h-42.667c-11.316 0-22.168-4.495-30.17-12.497s-12.497-18.854-12.497-30.17c0-11.316 4.495-22.168 12.497-30.17s18.854-12.497 30.17-12.497h42.667v-426.669h-42.667c-11.316 0-22.168-4.493-30.17-12.493-8.001-8.004-12.497-18.854-12.497-30.174 0-11.315 4.495-22.165 12.497-30.17 8.002-8 18.854-12.497 30.17-12.497h42.667v-42.667c0-11.315 4.495-22.165 12.497-30.17 8.002-8 18.854-12.497 30.17-12.497s22.168 4.497 30.17 12.497c8.001 8.004 12.497 18.854 12.497 30.17v42.667h85.333v-42.667c0-11.315 4.497-22.165 12.497-30.17 8-8 18.854-12.497 30.17-12.497s22.17 4.497 30.17 12.497c8 8.004 12.497 18.854 12.497 30.17v42.667h85.333c40.299-0.102 79.33 14.097 110.148 40.068 30.814 25.971 51.413 62.037 58.133 101.773s-0.875 80.567-21.436 115.23c-20.557 34.662-52.749 60.902-90.842 74.057v0.004zM383.646 661.25h170.667c22.63 0 44.335-8.991 60.339-24.994s24.994-37.708 24.994-60.34c0-22.632-8.99-44.337-24.994-60.341-16.004-16-37.709-24.994-60.339-24.994h-170.667v170.669zM639.646 234.581h-256v170.667h256c22.63 0 44.335-8.99 60.339-24.99 16.004-16.004 24.994-37.709 24.994-60.343 0-22.63-8.99-44.335-24.994-60.339-16.004-16-37.709-24.994-60.339-24.994z" />
<glyph unicode="&#xe91e;" glyph-name="bitcoin-11" d="M475.136 443.025l-25.421-103.053c31.381-7.881 128.162-39.309 142.464 18.825 14.95 60.629-85.666 76.305-117.043 84.228zM509.807 583.662l-23.044-93.464c26.133-6.588 106.679-33.451 119.731 19.426 13.598 55.158-70.554 67.452-96.683 74.038h-0.004zM512 874.667c-84.386 0-166.878-25.024-237.043-71.906s-124.852-113.519-157.145-191.482c-32.294-77.962-40.743-163.752-24.28-246.516s57.099-158.788 116.77-218.462c59.67-59.669 135.695-100.305 218.46-116.77 82.765-16.461 168.555-8.013 246.515 24.282 77.965 32.294 144.602 86.98 191.484 157.146s71.906 152.657 71.906 237.043c0 56.030-11.038 111.513-32.478 163.278s-52.868 98.801-92.489 138.421c-39.62 39.619-86.656 71.048-138.423 92.49-51.763 21.442-107.247 32.478-163.277 32.478v0zM697.941 508.783c-0.896-16.371-7.177-31.983-17.869-44.416-10.688-12.429-25.186-20.979-41.233-24.32 10.547-4.292 20.092-10.726 28.032-18.893s14.101-17.89 18.099-28.557c3.994-10.667 5.739-22.046 5.116-33.417-0.619-11.375-3.588-22.494-8.717-32.666-24.981-72.196-84.335-78.293-163.268-63.185l-19.157-77.641-46.285 11.669 18.906 76.599c-11.998 3.012-24.256 6.212-36.885 9.677l-18.974-76.954-46.234 11.665 19.157 77.786c-10.813 2.799-21.794 5.773-33 8.614l-60.234 15.185 22.979 53.585c0 0 34.104-9.173 33.644-8.495 2.123-0.674 4.359-0.926 6.578-0.73 2.22 0.192 4.379 0.823 6.352 1.86 1.973 1.033 3.721 2.449 5.143 4.164s2.489 3.695 3.139 5.828l51.943 210.678c0.667 6.455-1.216 12.914-5.245 18.001s-9.887 8.397-16.323 9.225c0.725 0.492-33.621 8.453-33.621 8.453l12.315 50 63.832-16.12-0.051-0.242c9.596-2.412 19.486-4.706 29.559-7.026l18.97 76.88 46.259-11.666-18.586-75.373c12.42-2.867 24.917-5.76 37.086-8.828l18.458 74.88 46.289-11.667-18.961-76.906c58.441-20.359 101.184-50.88 92.787-107.652z" />
<glyph unicode="&#xe91f;" glyph-name="bitcoin-21" d="M512 917.333c-92.825 0-183.566-27.526-260.748-79.097s-137.337-124.871-172.86-210.63c-35.523-85.76-44.817-180.127-26.708-271.169s62.809-174.669 128.446-240.307c65.638-65.638 149.265-110.336 240.306-128.444 91.042-18.112 185.408-8.815 271.168 26.705 85.76 35.524 159.061 95.68 210.633 172.86 51.571 77.184 79.095 167.923 79.095 260.749 0 124.475-49.446 243.852-137.463 331.869s-207.394 137.465-331.87 137.465v0zM512 64c-75.947 0-150.19 22.519-213.339 64.717-63.148 42.193-112.367 102.165-141.431 172.331-29.064 70.17-36.669 147.379-21.852 221.867 14.816 74.489 51.389 142.912 105.092 196.615s122.126 90.276 196.615 105.093c74.487 14.816 151.697 7.212 221.867-21.852 70.165-29.064 130.138-78.283 172.331-141.431 42.197-63.148 64.717-137.392 64.717-213.339 0-101.841-40.457-199.514-112.469-271.531-72.017-72.013-169.685-112.469-271.531-112.469v0zM597.333 661.333v42.667c0 11.316-4.497 22.168-12.497 30.17s-18.854 12.497-30.17 12.497c-11.315 0-22.17-4.495-30.17-12.497s-12.497-18.854-12.497-30.17v-42.667h-42.667v42.667c0 11.316-4.497 22.168-12.497 30.17s-18.854 12.497-30.17 12.497c-11.316 0-22.168-4.495-30.17-12.497s-12.497-18.854-12.497-30.17v-42.667h-42.667c-11.316 0-22.168-4.495-30.17-12.497s-12.497-18.854-12.497-30.17c0-11.316 4.495-22.168 12.497-30.17s18.854-12.497 30.17-12.497h42.667v-256h-42.667c-11.316 0-22.168-4.497-30.17-12.497s-12.497-18.854-12.497-30.17c0-11.315 4.495-22.17 12.497-30.17s18.854-12.497 30.17-12.497h42.667v-42.667c0-11.315 4.495-22.17 12.497-30.17s18.854-12.497 30.17-12.497c11.315 0 22.17 4.497 30.17 12.497s12.497 18.854 12.497 30.17v42.667h42.667v-42.667c0-11.315 4.497-22.17 12.497-30.17s18.854-12.497 30.17-12.497c11.315 0 22.17 4.497 30.17 12.497s12.497 18.854 12.497 30.17v42.667c33.95 0 66.505 13.487 90.509 37.491s37.491 56.563 37.491 90.509c-0.073 31.518-11.767 61.905-32.853 85.333 21.086 23.428 32.781 53.815 32.853 85.333 0 33.948-13.487 66.505-37.491 90.51s-56.559 37.49-90.509 37.49v0zM597.333 320h-128v85.333h128c11.315 0 22.17-4.497 30.17-12.497s12.497-18.854 12.497-30.17c0-11.315-4.497-22.17-12.497-30.17s-18.854-12.497-30.17-12.497zM597.333 490.667h-128v85.333h128c11.315 0 22.17-4.495 30.17-12.497s12.497-18.854 12.497-30.17c0-11.315-4.497-22.17-12.497-30.17s-18.854-12.497-30.17-12.497z" />
<glyph unicode="&#xe920;" glyph-name="bitcoin-31" d="M810.667 576c0 45.264-17.98 88.673-49.988 120.68-32.004 32.006-75.413 49.987-120.678 49.987v85.333c0 11.316-4.497 22.168-12.497 30.17s-18.854 12.497-30.17 12.497c-11.315 0-22.17-4.495-30.17-12.497s-12.497-18.854-12.497-30.17v-85.333h-85.333v85.333c0 11.316-4.497 22.168-12.497 30.17s-18.854 12.497-30.17 12.497c-11.316 0-22.168-4.495-30.17-12.497s-12.497-18.854-12.497-30.17v-85.333h-128c-11.316 0-22.168-4.495-30.17-12.497s-12.497-18.854-12.497-30.17c0-11.316 4.495-22.168 12.497-30.17s18.854-12.497 30.17-12.497h42.667v-426.667h-42.667c-11.316 0-22.168-4.497-30.17-12.497s-12.497-18.854-12.497-30.17c0-11.315 4.495-22.17 12.497-30.17s18.854-12.497 30.17-12.497h128v-85.333c0-11.315 4.495-22.17 12.497-30.17s18.854-12.497 30.17-12.497c11.315 0 22.17 4.497 30.17 12.497s12.497 18.854 12.497 30.17v85.333h85.333v-85.333c0-11.315 4.497-22.17 12.497-30.17s18.854-12.497 30.17-12.497c11.315 0 22.17 4.497 30.17 12.497s12.497 18.854 12.497 30.17v85.333c34.573 0.222 68.262 10.94 96.61 30.733 28.348 19.789 50.014 47.727 62.131 80.107 12.122 32.38 14.118 67.674 5.734 101.214-8.384 33.545-26.761 63.748-52.689 86.613 18.359 15.915 33.109 35.567 43.264 57.638 10.155 22.076 15.479 46.064 15.616 70.362v0zM640 234.667h-256v170.667h256c22.63 0 44.335-8.99 60.339-24.994s24.994-37.709 24.994-60.339c0-22.63-8.99-44.335-24.994-60.339s-37.709-24.994-60.339-24.994zM640 490.667h-256v170.667h256c22.63 0 44.335-8.99 60.339-24.994s24.994-37.708 24.994-60.34c0-22.632-8.99-44.335-24.994-60.339s-37.709-24.994-60.339-24.994z" />
<glyph unicode="&#xe921;" glyph-name="black-berry1" d="M512 874.667c-84.386 0-166.878-25.024-237.043-71.906s-124.852-113.519-157.145-191.482c-32.294-77.962-40.743-163.752-24.28-246.516s57.099-158.788 116.77-218.462c59.67-59.669 135.695-100.305 218.46-116.77 82.765-16.461 168.555-8.013 246.515 24.282 77.965 32.294 144.602 86.98 191.484 157.146s71.906 152.657 71.906 237.043c0 56.030-11.038 111.513-32.478 163.278s-52.868 98.801-92.489 138.421c-39.62 39.619-86.656 71.048-138.423 92.49-51.763 21.442-107.247 32.478-163.277 32.478v0zM306.773 390.4h-81.92l22.187 102.827h78.507c51.2 0 63.147-24.747 63.147-44.8 0-27.733-18.347-58.027-81.92-58.027zM334.933 545.707h-81.493l22.187 102.827h78.507c50.773 0 62.72-25.173 62.72-42.667 0-29.867-17.92-60.16-81.92-60.16v0zM494.933 228.693h-81.92l22.613 103.253h78.507c50.773 0 62.72-25.173 62.72-45.227 0-27.733-17.92-58.027-81.92-58.027v0zM525.227 390.4h-81.493l22.187 102.827h78.507c50.773 0 62.72-24.747 62.72-44.8 0-27.733-17.92-58.027-81.92-58.027v0zM554.667 545.707h-82.773l22.187 102.827h78.507c51.2 0 63.147-25.173 63.147-42.667 0-29.867-18.347-60.16-81.067-60.16zM714.24 306.347h-82.347l22.187 103.253h78.507c50.773 0 63.147-25.173 63.147-45.227 0-27.733-18.347-58.027-82.347-58.027h0.853zM744.96 453.12h-82.773l20.48 103.253h78.507c51.2 0 63.147-25.173 63.147-42.667 1.707-30.293-16.64-60.587-80.213-60.587h0.853z" />
<glyph unicode="&#xe922;" glyph-name="block-chat1" d="M810.662 362.662c-5.436 1.408-11.098 1.732-16.657 0.951s-10.91-2.654-15.748-5.508c-4.834-2.854-9.058-6.635-12.433-11.123-3.371-4.489-5.824-9.604-7.215-15.040-16.316-64.367-53.615-121.459-106.001-162.257-52.39-40.798-116.881-62.972-183.279-63.023h-238.507l27.307 26.88c7.947 7.991 12.407 18.807 12.407 30.080 0 11.268-4.46 22.084-12.407 30.080-37.373 37.222-64.22 83.678-77.813 134.643s-13.447 104.619 0.425 155.511c13.871 50.888 40.972 97.197 78.547 134.215s84.283 63.425 135.375 76.535c5.435 1.401 10.541 3.858 15.026 7.232s8.262 7.599 11.115 12.432c2.852 4.834 4.725 10.182 5.511 15.739 0.784 5.557 0.468 11.215-0.931 16.65-2.829 10.976-9.903 20.38-19.665 26.141-4.833 2.853-10.182 4.725-15.739 5.511s-11.215 0.469-16.65-0.932c-61.995-16.164-118.96-47.583-165.706-91.393s-81.789-98.621-101.934-159.438c-20.145-60.817-24.754-125.709-13.405-188.766 11.348-63.053 38.292-122.266 78.379-172.241l-72.96-71.253c-5.92-6.003-9.931-13.619-11.526-21.897s-0.702-16.841 2.566-24.61c3.201-7.795 8.636-14.464 15.622-19.17 6.985-4.71 15.208-7.245 23.632-7.283h341.333c85.171-0.055 167.949 28.207 235.298 80.346 67.354 52.134 115.46 125.184 136.755 207.654 1.604 5.517 2.078 11.307 1.391 17.011-0.687 5.709-2.517 11.217-5.389 16.201-2.867 4.979-6.716 9.331-11.307 12.787s-9.835 5.952-15.415 7.334zM876.369 812.367c-34.854 34.941-80.742 56.717-129.847 61.619s-98.394-7.372-139.469-34.733c-41.071-27.36-71.386-68.115-85.781-115.32s-11.977-97.94 6.839-143.564c18.816-45.623 52.868-83.311 96.354-106.646 43.486-23.33 93.717-30.865 142.135-21.321 48.418 9.549 92.032 35.588 123.405 73.685 31.373 38.094 48.567 85.888 48.657 135.238 0.051 28.034-5.427 55.803-16.115 81.72s-26.381 49.472-46.178 69.32v0zM597.329 661.327c0 33.948 13.487 66.505 37.491 90.51s56.559 37.49 90.509 37.49c19.072-0.113 37.875-4.486 55.040-12.8l-170.667-170.667c-8.23 17.328-12.459 36.284-12.373 55.467zM815.782 570.874c-18.999-18.059-42.961-30.024-68.813-34.357-25.852-4.335-52.407-0.838-76.254 10.037l170.667 170.667c8.145-17.492 12.228-36.6 11.947-55.893-0.030-33.936-13.534-66.472-37.547-90.453v0z" />
<glyph unicode="&#xe923;" glyph-name="block-chat21" d="M810.671 704h-170.667c-11.315 0-22.17-4.495-30.17-12.497s-12.497-18.854-12.497-30.17c0-11.316 4.497-22.168 12.497-30.17s18.854-12.497 30.17-12.497h170.667c11.315 0 22.17-4.495 30.17-12.497 8.004-8.001 12.497-18.854 12.497-30.17v-414.72l-66.987 61.867c-7.868 7.369-18.236 11.482-29.013 11.52h-373.333c-11.316 0-22.168 4.497-30.17 12.497s-12.497 18.854-12.497 30.17v42.667c0 11.315-4.495 22.17-12.497 30.17s-18.854 12.497-30.17 12.497c-11.316 0-22.168-4.497-30.17-12.497s-12.497-18.854-12.497-30.17v-42.667c0-33.946 13.486-66.505 37.49-90.509s56.562-37.491 90.51-37.491h356.693l128-116.48c7.433-6.98 17.122-11.068 27.307-11.52 5.854 0.064 11.639 1.22 17.067 3.413 7.633 3.332 14.123 8.823 18.671 15.799 4.548 6.972 6.959 15.125 6.929 23.454v512c0 33.948-13.487 66.505-37.491 90.51s-56.559 37.49-90.509 37.49zM449.711 510.293c34.94 34.853 56.717 80.741 61.619 129.848s-7.373 98.394-34.731 139.467c-27.362 41.072-68.117 71.387-115.322 85.782s-97.94 11.978-143.564-6.838c-45.623-18.816-83.312-52.868-106.644-96.355s-30.868-93.718-21.32-142.137c9.548-48.419 35.587-92.030 73.682-123.403s85.889-48.567 135.24-48.657c28.034-0.051 55.803 5.427 81.72 16.115s49.471 26.381 69.32 46.178v0zM170.671 661.334c0 33.948 13.486 66.505 37.49 90.51s56.562 37.49 90.51 37.49c18.927-0.176 37.579-4.548 54.613-12.8l-170.667-170.667c-8.081 17.362-12.164 36.317-11.947 55.467v0zM413.871 716.374c8.314-17.164 12.687-35.969 12.8-55.040-0.094-21.523-5.615-42.675-16.051-61.499s-25.45-34.712-43.654-46.196c-18.204-11.484-39.009-18.192-60.492-19.503-21.484-1.31-42.95 2.815-62.416 11.998l169.813 170.24z" />
<glyph unicode="&#xe924;" glyph-name="block-cloud1" d="M785.92 630.618c-26.069 59.904-71.061 109.607-128.081 141.494s-122.923 44.198-187.61 35.047c-64.687-9.151-124.589-39.26-170.527-85.712s-75.378-106.685-83.808-171.47c-35.745-8.707-67.721-28.732-91.159-57.088s-37.087-63.531-38.91-100.275c-1.823-36.745 8.277-73.097 28.794-103.633s50.353-53.628 85.062-65.83c4.425-1.361 9.024-2.082 13.653-2.133 11.316-1.809 22.888 0.947 32.169 7.671 9.282 6.72 15.514 16.853 17.324 28.169s-0.948 22.886-7.67 32.171c-6.721 9.28-16.854 15.514-28.17 17.323-16.089 5.807-30.062 16.316-40.104 30.165-10.043 13.845-15.692 30.391-16.216 47.488 0 22.63 8.99 44.335 24.994 60.339s37.708 24.994 60.34 24.994c11.316 0 22.168 4.497 30.17 12.497s12.497 18.854 12.497 30.17c0.109 50.463 18.103 99.253 50.785 137.703s77.936 64.070 127.724 72.308c49.783 8.238 100.877-1.439 144.205-27.312 43.324-25.873 76.075-66.267 92.433-114.005 2.441-7.332 6.822-13.864 12.685-18.899s12.979-8.383 20.595-9.688c25.655-4.644 49.284-17.012 67.721-35.452 18.436-18.436 30.801-42.065 35.439-67.725 4.642-25.655 1.335-52.122-9.476-75.849s-28.608-43.588-51.017-56.922c-9.843-5.658-17.037-14.993-19.998-25.958-2.961-10.961-1.446-22.652 4.211-32.495s14.997-17.037 25.958-19.998c10.961-2.961 22.652-1.446 32.495 4.211 32.35 18.778 59.196 45.73 77.841 78.157 18.65 32.427 28.442 69.184 28.399 106.59-0.128 45.905-15.061 90.543-42.581 127.283-27.516 36.742-66.15 63.627-110.165 76.664v0zM391.254 374.618c-23.849-23.876-40.085-54.285-46.655-87.386s-3.179-67.409 9.744-98.581c12.923-31.177 34.798-57.818 62.86-76.561 28.062-18.748 61.052-28.749 94.797-28.749s66.735 10.001 94.797 28.749c28.062 18.743 49.937 45.385 62.861 76.561 12.924 31.172 16.316 65.481 9.745 98.581s-22.805 63.509-46.656 87.386c-32.26 31.33-75.349 49.028-120.32 49.425-44.966 0.397-88.362-16.538-121.173-47.292v-2.133zM426.667 256.004c0 22.63 8.99 44.335 24.994 60.339s37.709 24.994 60.339 24.994c7.347-0.094 14.656-1.097 21.76-2.987l-104.107-103.68c-1.852 6.963-2.854 14.127-2.987 21.333v0zM572.16 195.844c-10.577-10.304-23.646-17.685-37.931-21.423-14.285-3.742-29.295-3.708-43.563 0.090l103.68 102.827c1.89-7.104 2.893-14.413 2.987-21.76-0.209-22.447-9.25-43.908-25.173-59.733z" />
<glyph unicode="&#xe925;" glyph-name="block-mail1" d="M746.667 394.257c49.417-0.405 97.438 16.354 135.868 47.42 38.434 31.066 64.887 74.509 74.846 122.91 9.963 48.402 2.807 98.761-20.237 142.476-23.040 43.715-60.548 78.074-106.108 97.21s-96.354 21.861-143.701 7.71c-47.347-14.151-88.311-44.3-115.9-85.298s-40.090-90.303-35.366-139.493c4.723-49.19 26.381-95.215 61.265-130.214 39.599-39.727 93.248-62.259 149.333-62.72v0zM837.12 517.137c-18.697-18.547-42.662-30.878-68.621-35.307-25.963-4.429-52.659-0.738-76.446 10.56l170.667 170.667c11.388-23.975 15.044-50.897 10.458-77.040s-17.186-50.214-36.058-68.88zM656.213 698.044c23.983 24.012 56.516 37.517 90.453 37.547 18.927-0.176 37.581-4.548 54.613-12.8l-170.667-170.667c-11.388 23.975-15.044 50.897-10.458 77.040s17.186 50.214 36.058 68.88v0zM874.667 351.59c-11.315 0-22.17-4.497-30.17-12.497s-12.497-18.854-12.497-30.17v-170.667c0-11.315-4.497-22.17-12.497-30.17s-18.854-12.497-30.17-12.497h-597.333c-11.316 0-22.168 4.497-30.17 12.497s-12.497 18.854-12.497 30.17v409.173l250.88-250.88c23.877-23.906 56.239-37.406 90.027-37.547 17.182-0.043 34.197 3.371 50.027 10.039 15.834 6.673 30.165 16.461 42.133 28.787 7.689 7.957 11.989 18.59 11.989 29.653s-4.301 21.696-11.989 29.653c-3.972 4.062-8.721 7.292-13.956 9.498-5.239 2.206-10.867 3.341-16.55 3.341s-11.311-1.135-16.55-3.341c-5.235-2.206-9.984-5.436-13.956-9.498-7.974-7.817-18.697-12.198-29.867-12.198s-21.892 4.382-29.867 12.198l-252.16 250.453h195.84c11.316 0 22.17 4.495 30.17 12.497s12.497 18.854 12.497 30.17c0 11.316-4.497 22.168-12.497 30.17s-18.854 12.497-30.17 12.497h-213.333c-33.948 0-66.505-13.486-90.51-37.49s-37.49-56.562-37.49-90.51v-426.667c0-33.946 13.486-66.505 37.49-90.509s56.562-37.491 90.51-37.491h597.333c33.946 0 66.505 13.487 90.509 37.491s37.491 56.563 37.491 90.509v170.667c0 11.315-4.497 22.17-12.497 30.17s-18.854 12.497-30.17 12.497z" />
<glyph unicode="&#xe926;" glyph-name="blogger-21" d="M414.297 513.694h95.523c8.721 0 17.088 3.465 23.258 9.634 6.165 6.165 9.63 14.531 9.63 23.254s-3.465 17.088-9.63 23.256c-6.17 6.168-14.537 9.633-23.258 9.633h-95.523c-8.723 0-17.088-3.465-23.256-9.633s-9.633-14.533-9.633-23.256c0-8.723 3.465-17.089 9.633-23.254 6.168-6.17 14.534-9.634 23.256-9.634zM828.941 874.583h-634.594c-28.974-0.107-56.73-11.664-77.218-32.151s-32.044-48.244-32.15-77.218v-634.59c0.105-28.975 11.661-56.734 32.149-77.222s48.244-32.047 77.219-32.154h634.59c28.975 0.107 56.734 11.661 77.222 32.149s32.047 48.243 32.154 77.218v634.598c-0.107 28.975-11.661 56.732-32.149 77.22s-48.247 32.044-77.222 32.149v0zM783.181 461.666l-0.841-114.155c-0.333-45.53-18.615-89.092-50.88-121.22s-75.9-50.231-121.434-50.377h-197.929c-45.587 0.085-89.293 18.18-121.595 50.347s-50.582 75.797-50.855 121.382v200.294c0.245 45.617 18.508 89.289 50.808 121.502s76.023 50.356 121.641 50.477h120.477c27.755-4.814 54.097-15.73 77.12-31.961s42.155-37.37 56.013-61.894c9.498-18.033 14.775-37.985 15.441-58.354 2.871-21.571 4.386-37.601 14.080-46.484 13.628-12.348 64.311-4.028 74.334-11.878l7.633-5.965 4.642-9.459 1.536-7.578-0.192-24.678zM608.375 382.14h-194.079c-4.285 0.128-8.552-0.602-12.549-2.15s-7.642-3.887-10.719-6.869c-3.077-2.987-5.523-6.558-7.194-10.505s-2.531-8.192-2.531-12.476c0-4.288 0.861-8.533 2.531-12.48s4.117-7.518 7.194-10.505c3.077-2.982 6.722-5.321 10.719-6.869s8.264-2.278 12.549-2.146h194.079c4.271-0.111 8.521 0.64 12.497 2.197 3.977 1.562 7.599 3.9 10.658 6.882s5.491 6.545 7.151 10.483c1.66 3.934 2.513 8.162 2.513 12.437 0 4.271-0.853 8.499-2.513 12.433-1.66 3.938-4.092 7.501-7.151 10.483s-6.682 5.325-10.658 6.882c-3.977 1.562-8.226 2.308-12.497 2.202v0z" />
<glyph unicode="&#xe927;" glyph-name="blogger-31" d="M596.958 405.312h-170.666c-11.316 0-22.168-4.493-30.17-12.497-8.001-8-12.497-18.854-12.497-30.17s4.495-22.17 12.497-30.17c8.002-8 18.854-12.497 30.17-12.497h170.666c11.315 0 22.17 4.497 30.17 12.497 8.004 8 12.497 18.854 12.497 30.17s-4.493 22.17-12.497 30.17c-8 8.004-18.854 12.497-30.17 12.497zM426.292 490.645h42.666c11.315 0 22.17 4.497 30.17 12.497 8.004 8 12.497 18.854 12.497 30.17s-4.493 22.169-12.497 30.17c-8 8.001-18.854 12.497-30.17 12.497h-42.666c-11.316 0-22.168-4.495-30.17-12.497s-12.497-18.854-12.497-30.17c0-11.315 4.495-22.17 12.497-30.17s18.854-12.497 30.17-12.497v0zM682.291 533.355v42.624c-0.043 45.25-18.039 88.633-50.035 120.63s-75.379 49.992-120.631 50.037h-85.333c-56.559-0.067-110.783-22.564-150.776-62.557s-62.491-94.217-62.557-150.776v-170.667c0.067-56.559 22.564-110.784 62.557-150.775s94.217-62.49 150.776-62.558h170.666c56.559 0.068 110.784 22.566 150.775 62.558 39.996 39.991 62.494 94.217 62.558 150.775v42.667c-0.043 33.937-13.538 66.475-37.534 90.479-23.996 24-56.529 37.508-90.466 37.563v0.001zM682.291 533.312v0zM724.958 362.645c-0.038-33.937-13.534-66.47-37.53-90.47-23.996-23.996-56.533-37.491-90.47-37.53h-170.666c-33.936 0.038-66.472 13.534-90.469 37.53-23.997 24-37.494 56.533-37.531 90.47v170.667c0.037 33.937 13.535 66.473 37.531 90.469s56.532 37.494 90.469 37.531h85.333c22.622-0.029 44.309-9.029 60.309-25.026 15.996-15.997 24.994-37.685 25.024-60.308v-42.667c0.030-22.622 9.028-44.309 25.028-60.305 15.996-16 37.683-24.998 60.305-25.028 11.315-0.009 22.161-4.506 30.161-12.506s12.497-18.846 12.506-30.161v-42.667zM852.958 917.312h-682.666c-33.936-0.037-66.472-13.535-90.469-37.531s-37.494-56.532-37.531-90.469v-682.667c0.037-33.937 13.535-66.47 37.531-90.466 23.997-24 56.532-37.495 90.469-37.534h682.666c33.937 0.038 66.475 13.534 90.47 37.534 23.996 23.996 37.491 56.529 37.53 90.466v682.667c-0.038 33.936-13.534 66.472-37.53 90.469s-56.533 37.494-90.47 37.531v0zM895.625 106.645c-0.009-11.315-4.506-22.161-12.506-30.161s-18.846-12.497-30.161-12.506h-682.666c-11.313 0.009-22.161 4.506-30.161 12.506s-12.497 18.846-12.505 30.161v682.667c0.008 11.313 4.505 22.161 12.505 30.161s18.848 12.497 30.161 12.505h682.666c11.315-0.008 22.161-4.505 30.161-12.505s12.497-18.848 12.506-30.161v-682.667z" />
<glyph unicode="&#xe928;" glyph-name="bookmark-cloud1" d="M639.996 490.671h-213.334c-11.316 0-22.168-4.497-30.17-12.497s-12.497-18.854-12.497-30.17v-341.333c-0.012-7.753 2.089-15.36 6.075-22.007s9.708-12.083 16.551-15.723c6.843-3.644 14.548-5.35 22.29-4.941 7.74 0.41 15.223 2.918 21.645 7.258l82.773 55.467 80.64-53.76c7.445-5.781 16.597-8.93 26.027-8.96 6.502-0.026 12.924 1.434 18.773 4.267 7.181 3.52 13.227 8.986 17.451 15.774 4.228 6.788 6.46 14.63 6.443 22.626v341.333c0 11.315-4.497 22.17-12.497 30.17s-18.854 12.497-30.17 12.497zM597.329 186.884l-40.107 26.88c-7.057 4.77-15.377 7.317-23.893 7.317s-16.836-2.547-23.893-7.317l-40.107-27.307v218.88h128v-218.453zM785.916 651.951c-26.069 59.904-71.061 109.607-128.081 141.494-57.024 31.887-122.927 44.198-187.61 35.047-64.688-9.151-124.59-39.26-170.528-85.712s-75.378-106.685-83.808-171.47c-40.679-9.742-76.364-34.084-100.278-68.404-23.914-34.317-34.392-76.224-29.443-117.76s24.978-79.808 56.286-107.55c31.308-27.738 71.712-43.017 113.542-42.927 11.316 0 22.168 4.497 30.17 12.497s12.497 18.854 12.497 30.17c0 11.315-4.495 22.17-12.497 30.17s-18.854 12.497-30.17 12.497c-22.632 0-44.337 8.99-60.34 24.994s-24.994 37.709-24.994 60.339c0 22.63 8.99 44.335 24.994 60.339s37.708 24.994 60.34 24.994c11.316 0 22.168 4.497 30.17 12.497s12.497 18.854 12.497 30.17c0.109 50.463 18.103 99.253 50.785 137.703s77.937 64.070 127.72 72.308c49.788 8.238 100.881-1.439 144.209-27.312 43.324-25.873 76.075-66.267 92.433-114.005 2.441-7.332 6.822-13.864 12.685-18.899s12.979-8.383 20.595-9.688c25.655-4.644 49.284-17.012 67.721-35.451 18.436-18.437 30.801-42.066 35.439-67.726 4.638-25.655 1.331-52.122-9.476-75.849-10.812-23.727-28.612-43.588-51.017-56.922-9.843-5.658-17.041-14.993-19.998-25.958-2.961-10.961-1.446-22.652 4.211-32.495s14.993-17.037 25.958-19.998c10.961-2.961 22.652-1.446 32.495 4.211 32.35 18.778 59.196 45.73 77.841 78.157 18.65 32.427 28.442 69.184 28.399 106.59-0.128 45.905-15.061 90.542-42.581 127.283-27.516 36.742-66.15 63.627-110.165 76.664v0z" />
<glyph unicode="&#xe929;" glyph-name="bookmark-mail1" d="M896 308.915c-11.315 0-22.17-4.493-30.17-12.497-8-8-12.497-18.85-12.497-30.17v-128c0-11.315-4.497-22.165-12.497-30.17-8-8-18.854-12.497-30.17-12.497h-597.333c-11.316 0-22.168 4.497-30.17 12.497-8.001 8.004-12.497 18.854-12.497 30.17v409.175l250.88-251.308c23.842-23.646 56.021-36.979 89.6-37.12 21.299-0.034 42.27 5.244 61.013 15.36 4.941 2.679 9.301 6.31 12.838 10.679 3.533 4.373 6.17 9.395 7.753 14.788 1.587 5.393 2.091 11.046 1.485 16.631-0.602 5.589-2.304 10.999-5.009 15.927-2.679 4.941-6.31 9.306-10.679 12.838s-9.395 6.17-14.788 7.757c-5.389 1.583-11.042 2.091-16.631 1.485-5.585-0.606-10.999-2.308-15.927-5.013-7.915-4.053-16.9-5.534-25.694-4.233-8.798 1.297-16.969 5.316-23.373 11.486l-251.307 250.881h281.173c11.315 0 22.17 4.495 30.17 12.497s12.497 18.854 12.497 30.17c0 11.316-4.497 22.168-12.497 30.17s-18.854 12.497-30.17 12.497h-298.667c-33.948 0-66.505-13.486-90.51-37.49s-37.49-56.562-37.49-90.51v-426.668c0-33.946 13.486-66.505 37.49-90.509s56.562-37.491 90.51-37.491h597.333c33.946 0 66.505 13.487 90.509 37.491s37.491 56.563 37.491 90.509v128c0 11.319-4.497 22.17-12.497 30.17-8 8.004-18.854 12.497-30.17 12.497v0zM896 820.916h-213.333c-11.315 0-22.17-4.495-30.17-12.497s-12.497-18.854-12.497-30.17v-341.335c0.013-7.782 2.155-15.415 6.195-22.067 4.036-6.656 9.818-12.075 16.717-15.68 6.903-3.605 14.656-5.252 22.421-4.766 7.77 0.486 15.258 3.089 21.653 7.526l82.347 55.040 81.493-54.613c7.394-5.15 16.162-7.97 25.173-8.107 6.037 0.030 11.998 1.34 17.493 3.84 7.484 3.366 13.841 8.819 18.308 15.706 4.463 6.886 6.848 14.916 6.865 23.121v341.335c0 11.316-4.497 22.168-12.497 30.17s-18.854 12.497-30.17 12.497zM853.333 517.129l-40.107 26.881c-7.057 4.769-15.377 7.318-23.893 7.318s-16.836-2.548-23.893-7.318l-40.107-26.881v218.455h128v-218.455z" />
<glyph unicode="&#xe92a;" glyph-name="bookmark-message1" d="M581.973 544.408l-12.373-73.812c-2.052-12.395-0.538-25.114 4.373-36.672 4.915-11.563 13.013-21.487 23.36-28.608 9.677-7.053 21.184-11.166 33.139-11.849 11.959-0.678 23.859 2.099 34.274 8.009l60.587 34.56 61.44-33.707c10.24-5.854 21.931-8.683 33.711-8.154 11.785 0.529 23.177 4.39 32.849 11.14 10.044 7.164 17.882 16.99 22.635 28.378 4.749 11.383 6.221 23.872 4.245 36.049l-12.373 73.812 51.2 52.053c8.448 8.588 14.374 19.333 17.131 31.061 2.752 11.728 2.227 23.988-1.515 35.439s-10.564 21.652-19.712 29.489c-9.152 7.836-20.279 13.006-32.171 14.944l-69.12 10.24-31.147 66.133c-5.141 11.054-13.338 20.409-23.616 26.964s-22.221 10.038-34.411 10.038c-12.19 0-24.132-3.482-34.411-10.038s-18.475-15.91-23.616-26.964l-31.147-66.133-69.12-10.24c-11.891-1.938-23.019-7.108-32.171-14.944-9.148-7.837-15.97-18.038-19.712-29.489s-4.267-23.711-1.515-35.439c2.756-11.728 8.683-22.474 17.131-31.061l52.053-51.2zM660.053 635.288c10.462 1.585 20.373 5.724 28.855 12.049s15.279 14.643 19.785 24.218l16.64 35.413 16.64-35.413c4.574-9.568 11.379-17.896 19.844-24.282s18.342-10.643 28.796-12.412l42.667-5.973-31.147-31.573c-7.219-7.485-12.599-16.548-15.71-26.472s-3.866-20.435-2.21-30.702l6.827-42.665-33.707 18.347c-9.395 5.231-19.968 7.974-30.72 7.974s-21.325-2.743-30.72-7.974l-33.707-18.347 6.827 42.665c1.69 10.202 0.947 20.658-2.167 30.518s-8.512 18.847-15.753 26.228l-31.147 32 40.107 6.4zM896 308.89c-11.315 0-22.17-4.497-30.17-12.497-8-8.004-12.497-18.854-12.497-30.17v-128c0-11.315-4.497-22.17-12.497-30.17-8-8.004-18.854-12.497-30.17-12.497h-597.333c-11.316 0-22.168 4.493-30.17 12.497-8.001 8-12.497 18.854-12.497 30.17v409.172l250.88-250.879c11.686-11.904 25.634-21.355 41.020-27.802 15.381-6.447 31.898-9.758 48.58-9.745h11.52c11.251 0.977 21.662 6.374 28.937 15.014 7.279 8.636 10.837 19.81 9.89 31.066-0.482 5.611-2.069 11.072-4.672 16.064-2.603 4.996-6.17 9.425-10.496 13.035-4.322 3.61-9.318 6.327-14.694 7.996-5.38 1.673-11.038 2.257-16.644 1.732-6.025-0.619-12.109 0.137-17.796 2.206-5.692 2.069-10.837 5.397-15.057 9.741l-251.307 251.732h153.173c11.316 0 22.168 4.495 30.17 12.497s12.497 18.854 12.497 30.17c0 11.316-4.495 22.168-12.497 30.17s-18.854 12.497-30.17 12.497h-170.667c-33.948 0-66.505-13.486-90.51-37.49s-37.49-56.562-37.49-90.51v-426.665c0-33.95 13.486-66.505 37.49-90.513 24.005-24.004 56.562-37.487 90.51-37.487h597.333c33.946 0 66.505 13.483 90.509 37.487 24.004 24.009 37.491 56.563 37.491 90.513v128c0 11.315-4.497 22.165-12.497 30.17-8 8-18.854 12.497-30.17 12.497v0z" />
<glyph unicode="&#xe92b;" glyph-name="bug1" d="M810.667 362.667h85.333c11.315 0 22.17 4.497 30.17 12.497s12.497 18.854 12.497 30.17c0 11.315-4.497 22.17-12.497 30.17s-18.854 12.497-30.17 12.497h-85.333v42.667c-0.375 19.657-3.392 39.172-8.96 58.027 40.107 15.376 74.637 42.5 99.072 77.823s37.641 77.199 37.888 120.151c0 11.316-4.497 22.168-12.497 30.17s-18.854 12.497-30.17 12.497c-11.315 0-22.17-4.495-30.17-12.497s-12.497-18.854-12.497-30.17c-0.038-27.513-8.939-54.282-25.387-76.339-16.444-22.057-39.561-38.227-65.92-46.114-21.043 26.967-48.26 48.478-79.36 62.72 0.444 5.68 0.444 11.386 0 17.067 0 45.264-17.98 88.673-49.988 120.68-32.004 32.006-75.413 49.987-120.678 49.987s-88.673-17.981-120.68-49.987c-32.006-32.006-49.987-75.416-49.987-120.68-0.442-5.68-0.442-11.386 0-17.067-31.718-14.008-59.543-35.536-81.067-62.72-26.040 8.189-48.781 24.489-64.9 46.519s-24.774 48.637-24.7 75.934c0 11.316-4.495 22.168-12.497 30.17s-18.854 12.497-30.17 12.497c-11.316 0-22.168-4.495-30.17-12.497s-12.497-18.854-12.497-30.17c0.246-42.951 13.451-84.828 37.888-120.151s58.967-62.447 99.072-77.823c-5.569-18.854-8.582-38.37-8.96-58.027v-42.667h-85.333c-11.316 0-22.168-4.497-30.17-12.497s-12.497-18.854-12.497-30.17c0-11.315 4.495-22.17 12.497-30.17s18.854-12.497 30.17-12.497h85.333v-42.667c0.037-19.776 2.038-39.501 5.973-58.88-39.412-15.795-73.214-42.991-97.081-78.106s-36.712-76.557-36.892-119.014c0-11.315 4.495-22.17 12.497-30.17s18.854-12.497 30.17-12.497c11.316 0 22.168 4.497 30.17 12.497s12.497 18.854 12.497 30.17c0.115 24.883 7.482 49.195 21.197 69.956 13.716 20.766 33.187 37.082 56.029 46.95 25.374-48.051 63.377-88.273 109.916-116.326s99.85-42.88 154.191-42.88c54.34 0 107.652 14.827 154.189 42.88 46.541 28.053 84.544 68.275 109.918 116.326 22.844-9.869 42.313-26.185 56.030-46.95 13.717-20.762 21.082-45.073 21.197-69.956 0-11.315 4.497-22.17 12.497-30.17s18.854-12.497 30.17-12.497c11.315 0 22.17 4.497 30.17 12.497s12.497 18.854 12.497 30.17c-0.179 42.458-13.026 83.9-36.894 119.014-23.863 35.115-57.668 62.31-97.079 78.106 3.934 19.379 5.935 39.104 5.973 58.88v42.667zM469.333 110.933c-48.186 9.835-91.494 36.019-122.595 74.116s-48.082 85.769-48.072 134.95v170.667c0 33.946 13.486 66.505 37.49 90.51s56.562 37.49 90.51 37.49h42.667v-507.733zM426.667 704c0 22.632 8.99 44.337 24.994 60.34s37.709 24.994 60.339 24.994c22.63 0 44.335-8.99 60.339-24.994s24.994-37.708 24.994-60.34h-170.667zM725.333 320c0.009-49.182-16.973-96.853-48.073-134.95s-74.406-64.282-122.594-74.116v507.733h42.667c33.946 0 66.505-13.486 90.509-37.49s37.491-56.564 37.491-90.51v-170.667z" />
<glyph unicode="&#xe92c;" glyph-name="business-chat1" d="M512.004 533.333c-11.315 0-22.17-4.497-30.17-12.497s-12.497-18.854-12.497-30.17v-170.667c0-11.315 4.497-22.17 12.497-30.17s18.854-12.497 30.17-12.497c11.315 0 22.17 4.497 30.17 12.497 8.004 8 12.497 18.854 12.497 30.17v170.667c0 11.315-4.493 22.17-12.497 30.17-8 8-18.854 12.497-30.17 12.497zM341.338 405.333c-11.316 0-22.168-4.497-30.17-12.497s-12.497-18.854-12.497-30.17v-42.667c0-11.315 4.495-22.17 12.497-30.17s18.854-12.497 30.17-12.497c11.316 0 22.168 4.497 30.17 12.497s12.497 18.854 12.497 30.17v42.667c0 11.315-4.495 22.17-12.497 30.17s-18.854 12.497-30.17 12.497v0zM512.004 874.667c-56.030 0-111.512-11.036-163.278-32.478s-98.801-52.87-138.421-92.49c-80.015-80.016-124.968-188.54-124.968-301.699-0.373-98.522 33.74-194.069 96.427-270.080l-85.333-85.333c-5.92-5.999-9.931-13.619-11.526-21.897s-0.702-16.841 2.566-24.61c3.544-7.676 9.289-14.127 16.506-18.534s15.58-6.566 24.028-6.212h384c113.161 0 221.683 44.954 301.7 124.966 80.013 80.017 124.966 188.54 124.966 301.7s-44.954 221.683-124.966 301.699c-80.017 80.015-188.54 124.968-301.7 124.968v0zM512.004 106.667h-281.173l39.68 39.68c4.032 3.951 7.239 8.666 9.436 13.862 2.197 5.201 3.341 10.786 3.364 16.431-0.16 11.255-4.761 21.99-12.8 29.867-55.868 55.808-90.659 129.259-98.445 207.838-7.786 78.583 11.915 157.431 55.746 223.116s109.080 114.14 184.631 137.111c75.549 22.971 156.73 19.037 229.703-11.133 72.977-30.17 133.235-84.709 170.505-154.324 37.274-69.616 49.259-149.999 33.907-227.461-15.347-77.461-57.079-147.2-118.084-197.342-61.001-50.142-137.502-77.581-216.469-77.645v0zM682.671 618.667c-11.315 0-22.17-4.495-30.17-12.497s-12.497-18.854-12.497-30.17v-256c0-11.315 4.497-22.17 12.497-30.17s18.854-12.497 30.17-12.497c11.315 0 22.17 4.497 30.17 12.497 8.004 8 12.497 18.854 12.497 30.17v256c0 11.316-4.493 22.168-12.497 30.17-8 8.001-18.854 12.497-30.17 12.497z" />
<glyph unicode="&#xe92d;" glyph-name="calculation1" d="M234.667 618.667h21.333v-21.333c0-11.316 4.495-22.168 12.497-30.17s18.854-12.497 30.17-12.497c11.316 0 22.168 4.495 30.17 12.497s12.497 18.854 12.497 30.17v21.333h21.333c11.316 0 22.168 4.495 30.17 12.497s12.497 18.854 12.497 30.17c0 11.316-4.495 22.168-12.497 30.17s-18.854 12.497-30.17 12.497h-21.333v21.333c0 11.316-4.495 22.168-12.497 30.17s-18.854 12.497-30.17 12.497c-11.316 0-22.168-4.495-30.17-12.497s-12.497-18.854-12.497-30.17v-21.333h-21.333c-11.316 0-22.168-4.495-30.17-12.497s-12.497-18.854-12.497-30.17c0-11.316 4.495-22.168 12.497-30.17s18.854-12.497 30.17-12.497zM208.213 144.213c7.994-7.949 18.808-12.407 30.080-12.407s22.086 4.459 30.080 12.407l30.293 30.293 30.293-30.293c7.994-7.949 18.808-12.407 30.080-12.407s22.086 4.459 30.080 12.407c7.947 7.996 12.407 18.807 12.407 30.080s-4.46 22.084-12.407 30.080l-30.293 30.293 30.293 30.293c6.99 8.162 10.642 18.662 10.228 29.402-0.415 10.735-4.866 20.924-12.465 28.523s-17.785 12.049-28.523 12.463c-10.738 0.414-21.237-3.238-29.399-10.227l-30.293-30.293-30.293 30.293c-8.162 6.989-18.662 10.641-29.399 10.227s-20.925-4.864-28.523-12.463c-7.599-7.599-12.050-17.788-12.465-28.523-0.415-10.739 3.238-21.239 10.228-29.402l30.293-30.293-30.293-30.293c-7.947-7.996-12.407-18.807-12.407-30.080s4.46-22.084 12.407-30.080v0zM853.333 917.333h-682.667c-33.948 0-66.505-13.486-90.51-37.49s-37.49-56.562-37.49-90.51v-682.667c0-33.946 13.486-66.505 37.49-90.509s56.562-37.491 90.51-37.491h682.667c33.946 0 66.505 13.487 90.509 37.491s37.491 56.563 37.491 90.509v682.667c0 33.948-13.487 66.505-37.491 90.51s-56.563 37.49-90.509 37.49v0zM469.333 64h-298.667c-11.316 0-22.168 4.497-30.17 12.497s-12.497 18.854-12.497 30.17v298.667h341.333v-341.333zM469.333 490.667h-341.333v298.667c0 11.316 4.495 22.168 12.497 30.17s18.854 12.497 30.17 12.497h298.667v-341.333zM896 106.667c0-11.315-4.497-22.17-12.497-30.17s-18.854-12.497-30.17-12.497h-298.667v341.333h341.333v-298.667zM896 490.667h-341.333v341.333h298.667c11.315 0 22.17-4.495 30.17-12.497s12.497-18.854 12.497-30.17v-298.667zM661.333 256h128c11.315 0 22.17 4.497 30.17 12.497s12.497 18.854 12.497 30.17c0 11.315-4.497 22.17-12.497 30.17s-18.854 12.497-30.17 12.497h-128c-11.315 0-22.17-4.497-30.17-12.497s-12.497-18.854-12.497-30.17c0-11.315 4.497-22.17 12.497-30.17s18.854-12.497 30.17-12.497v0zM789.333 704h-128c-11.315 0-22.17-4.495-30.17-12.497s-12.497-18.854-12.497-30.17c0-11.316 4.497-22.168 12.497-30.17s18.854-12.497 30.17-12.497h128c11.315 0 22.17 4.495 30.17 12.497s12.497 18.854 12.497 30.17c0 11.316-4.497 22.168-12.497 30.17s-18.854 12.497-30.17 12.497zM661.333 128h128c11.315 0 22.17 4.497 30.17 12.497s12.497 18.854 12.497 30.17c0 11.315-4.497 22.17-12.497 30.17s-18.854 12.497-30.17 12.497h-128c-11.315 0-22.17-4.497-30.17-12.497s-12.497-18.854-12.497-30.17c0-11.315 4.497-22.17 12.497-30.17s18.854-12.497 30.17-12.497v0z" />
<glyph unicode="&#xe92e;" glyph-name="calendar1" d="M512 149.333c8.439 0 16.687 2.5 23.706 7.189 7.014 4.689 12.484 11.354 15.714 19.149s4.075 16.375 2.428 24.653c-1.647 8.277-5.709 15.881-11.678 21.845-5.965 5.969-13.568 10.031-21.845 11.678s-16.858 0.802-24.653-2.428c-7.795-3.23-14.46-8.7-19.149-15.714-4.689-7.019-7.189-15.266-7.189-23.706 0-11.315 4.497-22.17 12.497-30.17s18.854-12.497 30.17-12.497zM725.333 149.333c8.439 0 16.687 2.5 23.706 7.189 7.014 4.689 12.484 11.354 15.714 19.149s4.075 16.375 2.428 24.653c-1.647 8.277-5.709 15.881-11.678 21.845-5.965 5.969-13.568 10.031-21.845 11.678s-16.858 0.802-24.653-2.428c-7.795-3.23-14.46-8.7-19.149-15.714-4.689-7.019-7.189-15.266-7.189-23.706 0-11.315 4.497-22.17 12.497-30.17s18.854-12.497 30.17-12.497zM725.333 320c8.439 0 16.687 2.5 23.706 7.189 7.014 4.689 12.484 11.354 15.714 19.149s4.075 16.375 2.428 24.653c-1.647 8.277-5.709 15.881-11.678 21.845-5.965 5.969-13.568 10.031-21.845 11.678s-16.858 0.802-24.653-2.428c-7.795-3.23-14.46-8.7-19.149-15.714-4.689-7.019-7.189-15.266-7.189-23.706 0-11.315 4.497-22.17 12.497-30.17s18.854-12.497 30.17-12.497zM512 320c8.439 0 16.687 2.5 23.706 7.189 7.014 4.689 12.484 11.354 15.714 19.149s4.075 16.375 2.428 24.653c-1.647 8.277-5.709 15.881-11.678 21.845-5.965 5.969-13.568 10.031-21.845 11.678s-16.858 0.802-24.653-2.428c-7.795-3.23-14.46-8.7-19.149-15.714-4.689-7.019-7.189-15.266-7.189-23.706 0-11.315 4.497-22.17 12.497-30.17s18.854-12.497 30.17-12.497zM810.667 832h-42.667v42.667c0 11.316-4.497 22.168-12.497 30.17s-18.854 12.497-30.17 12.497c-11.315 0-22.17-4.495-30.17-12.497s-12.497-18.854-12.497-30.17v-42.667h-341.333v42.667c0 11.316-4.495 22.168-12.497 30.17s-18.854 12.497-30.17 12.497c-11.316 0-22.168-4.495-30.17-12.497s-12.497-18.854-12.497-30.17v-42.667h-42.667c-33.948 0-66.505-13.486-90.51-37.49s-37.49-56.562-37.49-90.51v-597.333c0-33.946 13.486-66.505 37.49-90.509s56.562-37.491 90.51-37.491h597.333c33.946 0 66.505 13.487 90.509 37.491s37.491 56.563 37.491 90.509v597.333c0 33.948-13.487 66.505-37.491 90.51s-56.563 37.49-90.509 37.49zM853.333 106.667c0-11.315-4.497-22.17-12.497-30.17s-18.854-12.497-30.17-12.497h-597.333c-11.316 0-22.168 4.497-30.17 12.497s-12.497 18.854-12.497 30.17v384h682.667v-384zM853.333 576h-682.667v128c0 11.316 4.495 22.168 12.497 30.17s18.854 12.497 30.17 12.497h42.667v-42.667c0-11.316 4.495-22.168 12.497-30.17s18.854-12.497 30.17-12.497c11.316 0 22.168 4.495 30.17 12.497s12.497 18.854 12.497 30.17v42.667h341.333v-42.667c0-11.316 4.497-22.168 12.497-30.17s18.854-12.497 30.17-12.497c11.315 0 22.17 4.495 30.17 12.497s12.497 18.854 12.497 30.17v42.667h42.667c11.315 0 22.17-4.495 30.17-12.497s12.497-18.854 12.497-30.17v-128zM298.667 320c8.439 0 16.688 2.5 23.704 7.189s12.485 11.354 15.715 19.149c3.229 7.795 4.074 16.375 2.428 24.653s-5.71 15.881-11.677 21.845c-5.967 5.969-13.57 10.031-21.846 11.678s-16.855 0.802-24.652-2.428c-7.796-3.23-14.46-8.7-19.148-15.714-4.688-7.019-7.191-15.266-7.191-23.706 0-11.315 4.495-22.17 12.497-30.17s18.854-12.497 30.17-12.497zM298.667 149.333c8.439 0 16.688 2.5 23.704 7.189s12.485 11.354 15.715 19.149c3.229 7.795 4.074 16.375 2.428 24.653s-5.71 15.881-11.677 21.845c-5.967 5.969-13.57 10.031-21.846 11.678s-16.855 0.802-24.652-2.428c-7.796-3.23-14.46-8.7-19.148-15.714-4.688-7.019-7.191-15.266-7.191-23.706 0-11.315 4.495-22.17 12.497-30.17s18.854-12.497 30.17-12.497z" />
<glyph unicode="&#xe92f;" glyph-name="calender1" d="M512 362.667c8.439 0 16.687 2.5 23.706 7.189 7.014 4.689 12.484 11.354 15.714 19.149s4.075 16.375 2.428 24.653c-1.647 8.277-5.709 15.881-11.678 21.845-5.965 5.969-13.568 10.031-21.845 11.678s-16.858 0.802-24.653-2.428c-7.795-3.23-14.46-8.7-19.149-15.714-4.689-7.019-7.189-15.266-7.189-23.706 0-11.315 4.497-22.17 12.497-30.17s18.854-12.497 30.17-12.497zM725.333 362.667c8.439 0 16.687 2.5 23.706 7.189 7.014 4.689 12.484 11.354 15.714 19.149s4.075 16.375 2.428 24.653c-1.647 8.277-5.709 15.881-11.678 21.845-5.965 5.969-13.568 10.031-21.845 11.678s-16.858 0.802-24.653-2.428c-7.795-3.23-14.46-8.7-19.149-15.714-4.689-7.019-7.189-15.266-7.189-23.706 0-11.315 4.497-22.17 12.497-30.17s18.854-12.497 30.17-12.497zM512 192c8.439 0 16.687 2.5 23.706 7.189 7.014 4.689 12.484 11.354 15.714 19.149s4.075 16.375 2.428 24.653c-1.647 8.277-5.709 15.881-11.678 21.845-5.965 5.969-13.568 10.031-21.845 11.678s-16.858 0.802-24.653-2.428c-7.795-3.23-14.46-8.7-19.149-15.714-4.689-7.019-7.189-15.266-7.189-23.706 0-11.315 4.497-22.17 12.497-30.17s18.854-12.497 30.17-12.497zM725.333 192c8.439 0 16.687 2.5 23.706 7.189 7.014 4.689 12.484 11.354 15.714 19.149s4.075 16.375 2.428 24.653c-1.647 8.277-5.709 15.881-11.678 21.845-5.965 5.969-13.568 10.031-21.845 11.678s-16.858 0.802-24.653-2.428c-7.795-3.23-14.46-8.7-19.149-15.714-4.689-7.019-7.189-15.266-7.189-23.706 0-11.315 4.497-22.17 12.497-30.17s18.854-12.497 30.17-12.497zM298.667 362.667c8.439 0 16.688 2.5 23.704 7.189s12.485 11.354 15.715 19.149c3.229 7.795 4.074 16.375 2.428 24.653s-5.71 15.881-11.677 21.845c-5.967 5.969-13.57 10.031-21.846 11.678s-16.855 0.802-24.652-2.428c-7.796-3.23-14.46-8.7-19.148-15.714-4.688-7.019-7.191-15.266-7.191-23.706 0-11.315 4.495-22.17 12.497-30.17s18.854-12.497 30.17-12.497zM810.667 789.333h-42.667v42.667c0 11.316-4.497 22.168-12.497 30.17s-18.854 12.497-30.17 12.497c-11.315 0-22.17-4.495-30.17-12.497s-12.497-18.854-12.497-30.17v-42.667h-341.333v42.667c0 11.316-4.495 22.168-12.497 30.17s-18.854 12.497-30.17 12.497c-11.316 0-22.168-4.495-30.17-12.497s-12.497-18.854-12.497-30.17v-42.667h-42.667c-33.948 0-66.505-13.486-90.51-37.49s-37.49-56.562-37.49-90.51v-512c0-33.946 13.486-66.505 37.49-90.509s56.562-37.491 90.51-37.491h597.333c33.946 0 66.505 13.487 90.509 37.491s37.491 56.563 37.491 90.509v512c0 33.948-13.487 66.505-37.491 90.51s-56.563 37.49-90.509 37.49v0zM853.333 149.333c0-11.315-4.497-22.17-12.497-30.17s-18.854-12.497-30.17-12.497h-597.333c-11.316 0-22.168 4.497-30.17 12.497s-12.497 18.854-12.497 30.17v384h682.667v-384zM853.333 618.667h-682.667v42.667c0 11.316 4.495 22.168 12.497 30.17s18.854 12.497 30.17 12.497h597.333c11.315 0 22.17-4.495 30.17-12.497s12.497-18.854 12.497-30.17v-42.667zM298.667 192c8.439 0 16.688 2.5 23.704 7.189s12.485 11.354 15.715 19.149c3.229 7.795 4.074 16.375 2.428 24.653s-5.71 15.881-11.677 21.845c-5.967 5.969-13.57 10.031-21.846 11.678s-16.855 0.802-24.652-2.428c-7.796-3.23-14.46-8.7-19.148-15.714-4.688-7.019-7.191-15.266-7.191-23.706 0-11.315 4.495-22.17 12.497-30.17s18.854-12.497 30.17-12.497z" />
<glyph unicode="&#xe930;" glyph-name="call-11" d="M255.997 640.419c11.316 0 22.168 4.495 30.17 12.497s12.497 18.854 12.497 30.17v25.173l122.88-122.88c23.998-23.971 56.532-37.434 90.452-37.434s66.453 13.463 90.453 37.434l195.84 195.84c7.949 7.994 12.407 18.808 12.407 30.080s-4.459 22.086-12.407 30.080c-3.964 3.999-8.683 7.173-13.884 9.339-5.197 2.166-10.773 3.281-16.41 3.281-5.632 0-11.209-1.115-16.405-3.281-5.201-2.166-9.92-5.34-13.888-9.339l-195.413-195.413c-3.964-3.999-8.683-7.174-13.884-9.339-5.197-2.166-10.773-3.281-16.41-3.281-5.632 0-11.209 1.115-16.405 3.281-5.201 2.166-9.92 5.34-13.888 9.339l-122.878 122.453h25.173c11.316 0 22.168 4.495 30.17 12.497s12.497 18.854 12.497 30.17c0 11.316-4.495 22.168-12.497 30.17s-18.854 12.497-30.17 12.497h-128c-8.375-0.007-16.563-2.479-23.543-7.107s-12.444-11.208-15.71-18.92c-2.15-5.29-3.307-10.931-3.413-16.64v-128c0-11.316 4.495-22.168 12.497-30.17s18.854-12.497 30.17-12.497zM936.102 326.391c-121.493 93.76-270.639 144.614-424.107 144.614-153.466 0-302.608-50.854-424.105-144.614-12.815-10.33-23.258-23.3-30.62-38.020-7.362-14.724-11.471-30.861-12.047-47.313-1.114-16.247 1.281-32.542 7.024-47.782s14.697-29.065 26.256-40.538l75.093-76.8c19.189-19.183 44.574-30.916 71.618-33.105s53.985 5.312 76.009 21.158l20.053 13.653c13.655 8.815 27.913 16.653 42.667 23.467 18.137 8.009 32.595 22.554 40.5 40.734 7.906 18.185 8.679 38.673 2.166 57.399l-3.84 10.24c73.052 18.769 149.664 18.769 222.718 0l-3.84-10.24c-6.511-18.726-5.739-39.215 2.167-57.399 7.906-18.18 22.366-32.725 40.499-40.734 14.754-6.814 29.013-14.652 42.667-23.467l20.053-13.653c19.046-13.978 42.086-21.457 65.707-21.333 30.69-0.038 60.147 12.083 81.92 33.707l77.227 77.653c10.816 11.755 19.029 25.66 24.102 40.806s6.895 31.189 5.338 47.087c-1.003 16.508-5.568 32.606-13.372 47.185-7.808 14.583-18.671 27.307-31.855 37.295v0zM887.462 213.751l-76.8-77.227c-4.668-4.864-10.88-7.949-17.579-8.725-6.694-0.781-13.453 0.798-19.115 4.459-8.107 5.973-16.213 11.52-25.173 17.067-15.023 9.502-30.549 18.189-46.507 26.027l17.067 46.507c3.844 10.637 3.307 22.366-1.493 32.606s-13.47 18.159-24.107 22.007c-117.124 42.654-245.538 42.654-362.665 0-10.634-3.849-19.304-11.767-24.104-22.007s-5.338-21.969-1.496-32.606l17.067-46.933c-16.175-7.522-31.851-16.073-46.933-25.6l-24.747-17.067c-5.673-4.070-12.657-5.888-19.595-5.099s-13.336 4.126-17.952 9.365l-76.8 77.227c-2.767 2.722-4.951 5.982-6.418 9.574-1.467 3.597-2.187 7.454-2.115 11.332 0.355 4.382 1.596 8.649 3.65 12.535s4.876 7.317 8.297 10.078c106.636 82.138 237.453 126.677 372.052 126.677 134.601 0 265.421-44.54 372.053-126.677 3.422-2.761 6.246-6.191 8.299-10.078s3.294-8.154 3.648-12.535c0.073-3.878-0.644-7.735-2.112-11.332-1.468-3.593-3.652-6.852-6.421-9.574v0z" />
<glyph unicode="&#xe931;" glyph-name="call-21" d="M828.16 405.333c-9.387 0-19.2 2.987-28.587 5.12-18.991 4.245-37.666 9.809-55.893 16.64-19.793 7.202-41.549 6.827-61.082-1.050-19.537-7.876-35.469-22.699-44.732-41.617l-9.387-19.627c-41.434 23.501-79.714 52.177-113.916 85.333-33.161 34.202-61.837 72.482-85.333 113.92l19.627 8.96c18.914 9.262 33.737 25.193 41.613 44.728 7.881 19.535 8.252 41.292 1.054 61.085-6.78 18.388-12.335 37.202-16.644 56.32-2.133 9.387-3.84 19.2-5.12 28.587-5.18 30.054-20.919 57.27-44.387 76.747-23.467 19.477-53.117 29.936-83.61 29.493h-128.427c-18.037 0.023-35.876-3.765-52.347-11.118s-31.201-18.104-43.226-31.549c-12.274-13.809-21.414-30.112-26.79-47.788s-6.863-36.307-4.356-54.612c23.193-177.585 104.329-342.558 230.827-469.333 126.778-126.498 291.748-207.633 469.335-230.827 5.538-0.422 11.098-0.422 16.636 0 31.467-0.047 61.841 11.499 85.333 32.427 13.449 12.023 24.196 26.756 31.552 43.226 7.351 16.469 11.14 34.308 11.115 52.348v128c-0.226 29.483-10.628 57.98-29.44 80.678s-44.885 38.208-73.813 43.908zM849.067 149.333c-0.013-5.952-1.271-11.84-3.695-17.276-2.428-5.44-5.965-10.308-10.385-14.298-4.672-4.262-10.24-7.428-16.29-9.271-6.050-1.847-12.437-2.321-18.697-1.395-159.219 20.796-307.187 93.355-421.118 206.507-114.028 114.027-187.22 262.512-208.213 422.4-0.927 6.258-0.451 12.643 1.394 18.694s5.012 11.616 9.273 16.292c4.037 4.474 8.976 8.041 14.492 10.468s11.482 3.658 17.508 3.612h128c9.863 0.241 19.505-2.943 27.284-9.011s13.216-14.644 15.383-24.269c0-11.52 3.84-23.467 6.4-34.987 4.931-22.351 11.491-44.312 19.627-65.707l-59.733-28.16c-10.267-4.713-18.246-13.306-22.187-23.893-4.268-10.388-4.268-22.039 0-32.427 61.406-131.533 167.136-237.261 298.665-298.667 10.389-4.267 22.042-4.267 32.427 0 10.59 3.942 19.183 11.921 23.893 22.187l26.88 59.733c22.016-8.026 44.535-14.583 67.413-19.627 11.093-2.56 23.044-4.693 34.564-6.4 9.621-2.167 18.197-7.603 24.269-15.381 6.067-7.782 9.25-17.421 9.007-27.285l3.84-131.84zM597.333 874.667c-9.813 0-20.053 0-29.867 0-11.315-0.962-21.786-6.38-29.107-15.061s-10.893-19.916-9.933-31.232c0.964-11.316 6.383-21.786 15.061-29.108 8.683-7.322 19.917-10.894 31.232-9.932h22.613c67.895 0 133.013-26.971 181.022-74.981s74.978-113.124 74.978-181.019c0-7.68 0-14.933 0-22.613-0.943-11.255 2.611-22.426 9.89-31.066s17.685-14.037 28.937-15.014h3.413c10.684-0.043 20.992 3.921 28.89 11.11 7.902 7.189 12.817 17.079 13.777 27.716 0 9.813 0 20.053 0 29.867 0.004 90.453-35.9 177.208-99.823 241.208-63.919 64-150.63 100.012-241.084 100.125v0zM682.667 533.333c0-11.315 4.497-22.17 12.497-30.17 8.004-8 18.854-12.497 30.17-12.497 11.319 0 22.17 4.497 30.174 12.497 8 8 12.493 18.854 12.493 30.17 0 45.264-17.98 88.673-49.984 120.68-32.009 32.006-75.418 49.987-120.683 49.987-11.315 0-22.165-4.495-30.17-12.497-8-8.002-12.497-18.854-12.497-30.17s4.497-22.168 12.497-30.17c8.004-8.001 18.854-12.497 30.17-12.497 22.635 0 44.339-8.99 60.343-24.994 16-16.003 24.99-37.708 24.99-60.34z" />
<glyph unicode="&#xe932;" glyph-name="call-31" d="M637.44 680.091h152.747l-33.707-34.133c-7.949-7.994-12.407-18.808-12.407-30.080s4.459-22.086 12.407-30.080c7.991-7.947 18.807-12.407 30.080-12.407s22.084 4.46 30.080 12.407l106.667 106.667c7.945 7.994 12.407 18.808 12.407 30.080s-4.463 22.086-12.407 30.080l-106.667 106.667c-8.162 6.99-18.662 10.643-29.402 10.228s-20.924-4.866-28.523-12.465c-7.599-7.599-12.049-17.785-12.463-28.523-0.418-10.738 3.238-21.237 10.227-29.4l33.707-33.707h-152.747c-11.315 0-22.17-4.495-30.17-12.497-8.004-8.002-12.497-18.854-12.497-30.17s4.493-22.168 12.497-30.17c8-8.002 18.854-12.497 30.17-12.497v0zM829.44 405.316c-9.387 0-19.2 2.987-28.587 5.12-19.008 4.19-37.692 9.754-55.893 16.64-19.793 7.202-41.553 6.827-61.086-1.050-19.537-7.876-35.465-22.699-44.727-41.617l-9.387-19.2c-41.557 23.121-79.744 51.831-113.493 85.333-33.506 33.749-62.217 71.936-85.333 113.495l17.92 11.947c18.914 9.263 33.741 25.193 41.617 44.728s8.247 41.292 1.050 61.085c-6.775 18.243-12.335 36.916-16.64 55.893-2.133 9.387-3.84 19.2-5.12 29.013-5.184 30.054-20.924 57.27-44.39 76.747s-53.117 29.936-83.61 29.493h-128c-18.388 0.173-36.597-3.619-53.388-11.116s-31.77-18.524-43.916-32.331c-12.146-13.806-21.175-30.068-26.472-47.677s-6.737-36.154-4.224-54.37c22.73-178.747 104.364-344.825 232.006-472.006 127.645-127.181 294.019-208.209 472.848-230.289h16.213c31.462-0.043 61.841 11.499 85.333 32.427 13.495 12.075 24.282 26.876 31.633 43.422 7.356 16.55 11.115 34.47 11.034 52.578v128c-0.525 29.641-11.315 58.176-30.537 80.742-19.217 22.566-45.675 37.76-74.85 42.991v0zM850.773 149.316c-0.009-6.054-1.306-12.045-3.806-17.562-2.505-5.517-6.153-10.436-10.701-14.438-4.77-4.113-10.342-7.189-16.367-9.028-6.025-1.835-12.369-2.394-18.62-1.638-159.791 20.489-308.215 93.594-421.859 207.778-113.644 114.18-186.039 262.951-205.769 422.837-0.679 6.25-0.084 12.573 1.749 18.586s4.867 11.593 8.917 16.401c3.998 4.551 8.92 8.199 14.438 10.7s11.504 3.799 17.562 3.806h128c9.922 0.221 19.61-3.024 27.398-9.176s13.187-14.827 15.269-24.53c1.707-11.662 3.84-23.182 6.4-34.56 4.929-22.491 11.488-44.594 19.627-66.133l-59.733-27.733c-5.107-2.343-9.702-5.672-13.519-9.796s-6.782-8.961-8.725-14.234c-1.943-5.273-2.825-10.877-2.595-16.492s1.565-11.128 3.932-16.225c61.406-131.53 167.135-237.263 298.668-298.668 10.385-4.267 22.037-4.267 32.427 0 5.321 1.907 10.21 4.847 14.383 8.657 4.177 3.806 7.552 8.405 9.937 13.53l26.453 59.733c22.054-7.885 44.57-14.438 67.413-19.627 11.375-2.56 22.895-4.693 34.56-6.4 9.702-2.078 18.377-7.479 24.529-15.266s9.399-17.476 9.178-27.401l0.853-133.12z" />
</font>
</defs>
</svg>
